查看: 7|回复: 0

[纪录片] 粉色海豚之谜 Mystery.of.the.Pink.Dolphin.2015.1080p.AMZN.WEBRip.DD2.0.x264-QOQ 3.68GB

[复制链接]

 成长值: 3210

级别:资源管理组

注册时间
2017-10-20
最后登录
2019-11-20
听众
1
收听
0
主题
87221
蓝光币
63004 枚
贡献
11580 点
发表于 2019-11-5 16:42:08 | 显示全部楼层 |阅读模式
粉色海豚之谜 Mystery.of.the.Pink.Dolphin.2015.1080p.AMZN.WEBRip.DD2.0.x264-QOQ 3.68GB-1.png

译  名 粉色海豚之谜
片  名 The Mystery of the Pink Dolphin
年  代 2015
产  地 法国 / 巴西
类  别 记载片
语  言 法语 / 英语 / 葡萄牙语 / 荷兰语
上映日期 2015-07-11(法国)
IMDb评分  7.4/10 from 13 users
IMDb链接  https://www.imdb.com/title/tt5079996
豆瓣评分 0/10 from 0 users
豆瓣链接 https://movie.douban.com/subject/30301074/
片  长 52分钟
导  演 Eric Ellena
编  剧 Nicolas Bazeille
主  演 Cristelle Ledroit


标  签 巴西

简  介  

  Hiding in a narrow branch of a river, deep within the Amazon rain forest, is a strange animal that one wouldn't expect to find here, thousands of kilometers away from the ocean: the Pink River Dolphin, one of the most mysterious and extraordinary species of the animal kingdom. Where does it come from? How different is it from other dolphins? How was it able to adapt to this lush, tropical rain forest environment? Are they descendants of a marine species, or do they belong to an entirely separate lineage born in ancient times? Scientists have been struggling to reconstruct the evolutionary course of this long overlooked creature. Now thanks to a recent discovery, they are finally able to retrace its origins and its incredible adaptation that has spanned over 25 million years. Join them on this remarkable scientific adventure as they unravel the mystery of the pink dolphin...
  1. Video
  2. ID                                       : 1
  3. Format                                   : AVC
  4. Format/Info                              : Advanced Video Codec
  5. Format profile                           : High@L4
  6. Format settings                          : CABAC / 4 Ref Frames
  7. Format settings, CABAC                   : Yes
  8. Format settings, Reference frames        : 4 frames
  9. Codec ID                                 : V_MPEG4/ISO/AVC
  10. Duration                                 : 52 min 48 s
  11. Bit rate                                 : 9 745 kb/s
  12. Width                                    : 1 920 pixels
  13. Height                                   : 1 080 pixels
  14. Display aspect ratio                     : 16:9
  15. Frame rate mode                          : Constant
  16. Frame rate                               : 25.000 FPS
  17. Color space                              : YUV
  18. Chroma subsampling                       : 4:2:0
  19. Bit depth                                : 8 bits
  20. Scan type                                : Progressive
  21. Bits/(Pixel*Frame)                       : 0.188
  22. Stream size                              : 3.59 GiB (98%)
  23. Default                                  : Yes
  24. Forced                                   : No
  25. Color range                              : Limited
  26. Color primaries                          : BT.709
  27. Transfer characteristics                 : BT.709
  28. Matrix coefficients                      : BT.709

  29. Audio
  30. ID                                       : 2
  31. Format                                   : E-AC-3
  32. Format/Info                              : Enhanced AC-3
  33. Commercial name                          : Dolby Digital Plus
  34. Codec ID                                 : A_EAC3
  35. Duration                                 : 52 min 48 s
  36. Bit rate mode                            : Constant
  37. Bit rate                                 : 224 kb/s
  38. Channel(s)                               : 2 channels
  39. Channel layout                           : L R
  40. Sampling rate                            : 48.0 kHz
  41. Frame rate                               : 31.250 FPS (1536 SPF)
  42. Compression mode                         : Lossy
  43. Stream size                              : 84.6 MiB (2%)
  44. Language                                 : English
  45. Service kind                             : Complete Main
  46. Default                                  : Yes
  47. Forced                                   : No

  48. Text
  49. ID                                       : 3
  50. Format                                   : UTF-8
  51. Codec ID                                 : S_TEXT/UTF8
  52. Codec ID/Info                            : UTF-8 Plain Text
  53. Duration                                 : 52 min 35 s
  54. Bit rate                                 : 94 b/s
  55. Count of elements                        : 978
  56. Stream size                              : 36.5 KiB (0%)
  57. Title                                    : SDH
  58. Language                                 : English
  59. Default                                  : No
  60. Forced                                   : No
复制代码

粉色海豚之谜 Mystery.of.the.Pink.Dolphin.2015.1080p.AMZN.WEBRip.DD2.0.x264-QOQ 3.68GB-2.png 粉色海豚之谜 Mystery.of.the.Pink.Dolphin.2015.1080p.AMZN.WEBRip.DD2.0.x264-QOQ 3.68GB-3.png 粉色海豚之谜 Mystery.of.the.Pink.Dolphin.2015.1080p.AMZN.WEBRip.DD2.0.x264-QOQ 3.68GB-4.png







VIP会员免费任意下载本站所有资源!---点击开通
回复

使用道具 举报

懒得打字嘛,点击右侧快捷回复 【右侧内容,后台自定义】
您需要登录后才可以回帖 登录 | 立即注册

本版积分规则

QQ|Archiver|手机版|小黑屋| 中国高清网 |网站地图

GMT+8, 2019-11-20 09:03 , Processed in 0.235330 second(s), 37 queries .

Powered by HDchina X3.4

Copyright 2017-2019©HDchina.All right reserved

返回顶部 联系我们