查看: 8|回复: 0

[剧情片] 重振雄风/曾几何时 Stealing.Home.1988.1080p.AMZN.WEBRip.DD2.0.x264-alfaHD 10.00GB

[复制链接]

 成长值: 3140

级别:资源管理组

注册时间
2017-10-20
最后登录
2019-11-11
听众
1
收听
0
主题
86761
蓝光币
61613 枚
贡献
11119 点
发表于 2019-11-5 16:34:45 | 显示全部楼层 |阅读模式
重振雄风/曾多少时 Stealing.Home.1988.1080p.AMZN.WEBRip.DD2.0.x264-alfaHD 10.00GB-1.png

译  名 重振雄风 / 曾多少时
片  名 Stealing Home
年  代 1988
产  地 美国
类  别 剧情
语  言 英语
上映日期 1988-08-26
IMDb评分  6.7/10 from 3913 users
IMDb链接  https://www.imdb.com/title/tt0096171
豆瓣评分 7.1/10 from 157 users
豆瓣链接 https://movie.douban.com/subject/1293612/
片  长 98 分钟
导  演 Steven Kampmann / William Porter
编  剧 Steven Kampmann / William Porter
主  演 朱迪·福斯特
       马克·哈蒙
       乔纳森·斯利文曼


标  签 JodieFoster | 美国 | 美国电影 | 1980s | 恋爱 | 朱迪·福斯特 | 文艺 | Jodie

简  介  

  比利怀特自小热衷棒球,在球场上表示优异,并获得邻人大姊凯蒂的激励,誓以棒球为毕生的奇迹,凯蒂的关爱,使她与比利之间建立起情同姊弟又如知己的友谊。
  比利因一次球赛失利而灰心丧志,遂放弃棒球球往大城市谋生,并与一女侍同居,过着混混噩噩的日子,某日接获母亲来电得知凯蒂因意志消 沉自杀,遗书中指名骨灰由比利负责处置,比利整装返乡,见得老友艾普比再度重返球场,并将凯蒂骨灰下葬,但是昔日一切早已不胜回首......
  1. Video
  2. ID                                       : 1
  3. Format                                   : AVC
  4. Format/Info                              : Advanced Video Codec
  5. Format profile                           : High@L4
  6. Format settings                          : CABAC / 4 Ref Frames
  7. Format settings, CABAC                   : Yes
  8. Format settings, Reference frames        : 4 frames
  9. Codec ID                                 : V_MPEG4/ISO/AVC
  10. Duration                                 : 1 h 37 min
  11. Bit rate mode                            : Variable
  12. Bit rate                                 : 14.4 Mb/s
  13. Maximum bit rate                         : 15.0 Mb/s
  14. Width                                    : 1 920 pixels
  15. Height                                   : 1 080 pixels
  16. Display aspect ratio                     : 16:9
  17. Frame rate mode                          : Constant
  18. Frame rate                               : 23.976 (24000/1001) FPS
  19. Color space                              : YUV
  20. Chroma subsampling                       : 4:2:0
  21. Bit depth                                : 8 bits
  22. Scan type                                : Progressive
  23. Bits/(Pixel*Frame)                       : 0.289
  24. Stream size                              : 9.84 GiB (98%)
  25. Writing library                          : x264 core 148 r2623 d5b2374
  26. Encoding settings                        : cabac=1 / ref=4 / deblock=1:-1:-1 / analyse=0x3:0x133 / me=umh / subme=9 / psy=1 / psy_rd=1.00:0.15 / mixed_ref=1 / me_range=24 / chroma_me=1 / trellis=2 / 8x8dct=1 / cqm=0 / deadzone=21,11 / fast_pskip=1 / chroma_qp_offset=-3 / threads=34 / lookahead_threads=5 / sliced_threads=0 / nr=150 / decimate=1 / interlaced=0 / bluray_compat=0 / constrained_intra=0 / bframes=8 / b_pyramid=2 / b_adapt=2 / b_bias=0 / direct=3 / weightb=1 / open_gop=0 / weightp=2 / keyint=120 / keyint_min=61 / scenecut=0 / intra_refresh=0 / rc_lookahead=120 / rc=crf / mbtree=1 / crf=18.0 / qcomp=0.60 / qpmin=0 / qpmax=69 / qpstep=4 / vbv_maxrate=15000 / vbv_bufsize=31250 / crf_max=0.0 / nal_hrd=vbr / filler=0 / ip_ratio=1.40 / aq=3:1.00
  27. Default                                  : Yes
  28. Forced                                   : No
  29. Color range                              : Limited
  30. Color primaries                          : BT.709
  31. Transfer characteristics                 : BT.709
  32. Matrix coefficients                      : BT.709

  33. Audio
  34. ID                                       : 2
  35. Format                                   : E-AC-3
  36. Format/Info                              : Enhanced AC-3
  37. Commercial name                          : Dolby Digital Plus
  38. Codec ID                                 : A_EAC3
  39. Duration                                 : 1 h 37 min
  40. Bit rate mode                            : Constant
  41. Bit rate                                 : 224 kb/s
  42. Channel(s)                               : 2 channels
  43. Channel layout                           : L R
  44. Sampling rate                            : 48.0 kHz
  45. Frame rate                               : 31.250 FPS (1536 SPF)
  46. Compression mode                         : Lossy
  47. Stream size                              : 157 MiB (2%)
  48. Language                                 : English
  49. Service kind                             : Complete Main
  50. Default                                  : Yes
  51. Forced                                   : No

  52. Text #1
  53. ID                                       : 3
  54. Format                                   : UTF-8
  55. Codec ID                                 : S_TEXT/UTF8
  56. Codec ID/Info                            : UTF-8 Plain Text
  57. Duration                                 : 1 h 37 min
  58. Bit rate                                 : 48 b/s
  59. Count of elements                        : 1497
  60. Stream size                              : 34.9 KiB (0%)
  61. Language                                 : English
  62. Default                                  : No
  63. Forced                                   : No

  64. Text #2
  65. ID                                       : 4
  66. Format                                   : UTF-8
  67. Codec ID                                 : S_TEXT/UTF8
  68. Codec ID/Info                            : UTF-8 Plain Text
  69. Duration                                 : 1 h 37 min
  70. Bit rate                                 : 49 b/s
  71. Count of elements                        : 1518
  72. Stream size                              : 35.2 KiB (0%)
  73. Title                                    : SDH
  74. Language                                 : English
  75. Default                                  : No
  76. Forced                                   : No
复制代码

163335lg3h2tt3bt44mtdw.png 重振雄风/曾多少时 Stealing.Home.1988.1080p.AMZN.WEBRip.DD2.0.x264-alfaHD 10.00GB-3.png 重振雄风/曾多少时 Stealing.Home.1988.1080p.AMZN.WEBRip.DD2.0.x264-alfaHD 10.00GB-4.png






VIP会员免费任意下载本站所有资源!---点击开通
回复

使用道具 举报

懒得打字嘛,点击右侧快捷回复 【右侧内容,后台自定义】
您需要登录后才可以回帖 登录 | 立即注册

本版积分规则

QQ|Archiver|手机版|小黑屋| 中国高清网 |网站地图 

GMT+8, 2019-11-13 17:11 , Processed in 0.244805 second(s), 37 queries .

Powered by HDchina X3.4

Copyright 2017-2019©HDchina.All right reserved

返回顶部 联系我们