查看: 7|回复: 0

[剧情片] 枭雄敌手/贼枭雄棋逢敌手 The.Don.Is.Dead.1973.1080p.AMZN.WEBRip.DDP2.0.x264-monkee 8.59GB

[复制链接]

 成长值: 3160

级别:资源管理组

注册时间
2017-10-20
最后登录
2019-11-11
听众
1
收听
0
主题
86761
蓝光币
61861 枚
贡献
11119 点
发表于 2019-11-5 16:31:31 | 显示全部楼层 |阅读模式
枭雄对手/贼枭雄棋逢对手 The.Don.Is.Dead.1973.1080p.AMZN.WEBRip.DDP2.0.x264-monkee 8.59GB-1.png

译  名 枭雄对手 / 贼枭雄棋逢对手
片  名 The Don Is Dead
年  代 1973
产  地 美国
类  别 剧情 / 行动 / 惊悚 / 犯罪
语  言 英语
上映日期 1973-11-14
IMDb评分  6.1/10 from 925 users
IMDb链接  https://www.imdb.com/title/tt0069989
豆瓣评分 0/10 from 0 users
豆瓣链接 https://movie.douban.com/subject/1296743/
片  长 106 分钟(德国)
导  演 理查德·弗莱彻 Richard Fleischer
编  剧 Christopher Trumbo / Marvin H. Albert
主  演 弗雷德里克·福瑞斯特 Frederic Forrest
       安东尼·奎恩 Anthony Quinn
       Robert Forster


标  签 1973 | 美国电影 | 美国 | 黑色诙谐 | 行动 | AnthonyQuinn | 犯罪 | 佛来撤

简  介  

  佳构,弗莱彻版本的《教父》,理查德·克莱因的摄影“低落色彩的、如天鹅绒顺滑的镜头使全部影片战栗着”。
  1. Video
  2. ID                                       : 1
  3. Format                                   : AVC
  4. Format/Info                              : Advanced Video Codec
  5. Format profile                           : High@L4
  6. Format settings                          : CABAC / 4 Ref Frames
  7. Format settings, CABAC                   : Yes
  8. Format settings, Reference frames        : 4 frames
  9. Codec ID                                 : V_MPEG4/ISO/AVC
  10. Duration                                 : 1 h 53 min
  11. Bit rate mode                            : Variable
  12. Bit rate                                 : 10.6 Mb/s
  13. Maximum bit rate                         : 15.0 Mb/s
  14. Width                                    : 1 920 pixels
  15. Height                                   : 1 040 pixels
  16. Display aspect ratio                     : 1.85:1
  17. Frame rate mode                          : Constant
  18. Frame rate                               : 23.976 (24000/1001) FPS
  19. Color space                              : YUV
  20. Chroma subsampling                       : 4:2:0
  21. Bit depth                                : 8 bits
  22. Scan type                                : Progressive
  23. Bits/(Pixel*Frame)                       : 0.221
  24. Stream size                              : 8.41 GiB (98%)
  25. Default                                  : Yes
  26. Forced                                   : No
  27. Color range                              : Limited
  28. Color primaries                          : BT.709
  29. Transfer characteristics                 : BT.709
  30. Matrix coefficients                      : BT.709

  31. Audio
  32. ID                                       : 2
  33. Format                                   : E-AC-3
  34. Format/Info                              : Enhanced AC-3
  35. Commercial name                          : Dolby Digital Plus
  36. Codec ID                                 : A_EAC3
  37. Duration                                 : 1 h 53 min
  38. Bit rate mode                            : Constant
  39. Bit rate                                 : 224 kb/s
  40. Channel(s)                               : 2 channels
  41. Channel layout                           : L R
  42. Sampling rate                            : 48.0 kHz
  43. Frame rate                               : 31.250 FPS (1536 SPF)
  44. Compression mode                         : Lossy
  45. Stream size                              : 182 MiB (2%)
  46. Language                                 : English
  47. Service kind                             : Complete Main
  48. Default                                  : Yes
  49. Forced                                   : No

  50. Text
  51. ID                                       : 3
  52. Format                                   : UTF-8
  53. Codec ID                                 : S_TEXT/UTF8
  54. Codec ID/Info                            : UTF-8 Plain Text
  55. Duration                                 : 1 h 49 min
  56. Bit rate                                 : 48 b/s
  57. Count of elements                        : 1178
  58. Stream size                              : 38.8 KiB (0%)
  59. Language                                 : English
  60. Default                                  : No
  61. Forced                                   : No
复制代码

枭雄对手/贼枭雄棋逢对手 The.Don.Is.Dead.1973.1080p.AMZN.WEBRip.DDP2.0.x264-monkee 8.59GB-2.png 枭雄对手/贼枭雄棋逢对手 The.Don.Is.Dead.1973.1080p.AMZN.WEBRip.DDP2.0.x264-monkee 8.59GB-3.png 枭雄对手/贼枭雄棋逢对手 The.Don.Is.Dead.1973.1080p.AMZN.WEBRip.DDP2.0.x264-monkee 8.59GB-4.png 163025fk4cvkyo9io81ic4.png 枭雄对手/贼枭雄棋逢对手 The.Don.Is.Dead.1973.1080p.AMZN.WEBRip.DDP2.0.x264-monkee 8.59GB-6.png 枭雄对手/贼枭雄棋逢对手 The.Don.Is.Dead.1973.1080p.AMZN.WEBRip.DDP2.0.x264-monkee 8.59GB-7.png






VIP会员免费任意下载本站所有资源!---点击开通
回复

使用道具 举报

懒得打字嘛,点击右侧快捷回复 【右侧内容,后台自定义】
您需要登录后才可以回帖 登录 | 立即注册

本版积分规则

QQ|Archiver|手机版|小黑屋| 中国高清网 |网站地图 

GMT+8, 2019-11-15 11:02 , Processed in 0.245439 second(s), 37 queries .

Powered by HDchina X3.4

Copyright 2017-2019©HDchina.All right reserved

返回顶部 联系我们