查看: 9|回复: 0

[剧情片] 暴风汉子 New.Jersey.Drive.1995.1080p.AMZN.WEBRip.DDP5.1.x264-pawel2006 8.24GB

[复制链接]

 成长值: 3230

级别:资源管理组

注册时间
2017-10-20
最后登录
2019-11-21
听众
1
收听
0
主题
87390
蓝光币
63616 枚
贡献
11749 点
发表于 2019-11-5 16:26:21 | 显示全部楼层 |阅读模式
狂风汉子 New.Jersey.Drive.1995.1080p.AMZN.WEBRip.DDP5.1.x264-pawel2006 8.24GB-1.png

译  名 狂风汉子
片  名 New Jersey Drive
年  代 1995
产  地 美国
类  别 剧情 / 犯罪
语  言 英语
上映日期 1995-04-19
IMDb评分  6.7/10 from 2660 users
IMDb链接  https://www.imdb.com/title/tt0113967
豆瓣评分 0/10 from 0 users
豆瓣链接 https://movie.douban.com/subject/1300902/
片  长 98 分钟
导  演 尼克 戈梅斯 (Nick Gomez)
编  剧 Michel Marriott / 尼克 戈梅斯 (Nick Gomez)
主  演 Shar-Ron Corley
       加布里埃尔·卡塞斯 Gabriel Casseus
       Saul Stein
       Gwen McGee
       Andre Moore
       唐纳德·法森 Donald Faison


标  签 黑人 | 犯罪 | 帮派 | hiphop | 美国 | racism | 说唱电影 | 狂风汉子

简  介  

  尊逊.柏蒂和他的兄弟只懂以偷车为生,可是,当他们遇上警探罗斯高后,他们的这类被制止的游戏得以了结,但他们却堕入了灭亡的边沿。幸得朋友和家人的支持,他们才有一丝希望能改变大势。
  1. Video
  2. ID                                       : 1
  3. Format                                   : AVC
  4. Format/Info                              : Advanced Video Codec
  5. Format profile                           : High@L4
  6. Format settings                          : CABAC / 4 Ref Frames
  7. Format settings, CABAC                   : Yes
  8. Format settings, Reference frames        : 4 frames
  9. Codec ID                                 : V_MPEG4/ISO/AVC
  10. Duration                                 : 1 h 37 min
  11. Bit rate                                 : 11.4 Mb/s
  12. Width                                    : 1 920 pixels
  13. Height                                   : 1 080 pixels
  14. Display aspect ratio                     : 16:9
  15. Frame rate mode                          : Constant
  16. Frame rate                               : 23.976 (24000/1001) FPS
  17. Color space                              : YUV
  18. Chroma subsampling                       : 4:2:0
  19. Bit depth                                : 8 bits
  20. Scan type                                : Progressive
  21. Bits/(Pixel*Frame)                       : 0.229
  22. Stream size                              : 7.80 GiB (95%)
  23. Default                                  : Yes
  24. Forced                                   : No
  25. Color range                              : Limited
  26. Color primaries                          : BT.709
  27. Transfer characteristics                 : BT.709
  28. Matrix coefficients                      : BT.709

  29. Audio
  30. ID                                       : 2
  31. Format                                   : E-AC-3
  32. Format/Info                              : Enhanced AC-3
  33. Commercial name                          : Dolby Digital Plus
  34. Codec ID                                 : A_EAC3
  35. Duration                                 : 1 h 37 min
  36. Bit rate mode                            : Constant
  37. Bit rate                                 : 640 kb/s
  38. Channel(s)                               : 6 channels
  39. Channel layout                           : L R C LFE Ls Rs
  40. Sampling rate                            : 48.0 kHz
  41. Frame rate                               : 31.250 FPS (1536 SPF)
  42. Compression mode                         : Lossy
  43. Stream size                              : 448 MiB (5%)
  44. Title                                    : English
  45. Language                                 : English
  46. Service kind                             : Complete Main
  47. Default                                  : Yes
  48. Forced                                   : No

  49. Text
  50. ID                                       : 3
  51. Format                                   : UTF-8
  52. Codec ID                                 : S_TEXT/UTF8
  53. Codec ID/Info                            : UTF-8 Plain Text
  54. Duration                                 : 1 h 33 min
  55. Bit rate                                 : 74 b/s
  56. Count of elements                        : 1293
  57. Stream size                              : 50.5 KiB (0%)
  58. Title                                    : English [SDH]
  59. Language                                 : English
  60. Default                                  : No
  61. Forced                                   : No
复制代码

狂风汉子 New.Jersey.Drive.1995.1080p.AMZN.WEBRip.DDP5.1.x264-pawel2006 8.24GB-2.png 162453wff16la6efwaamwt.png 狂风汉子 New.Jersey.Drive.1995.1080p.AMZN.WEBRip.DDP5.1.x264-pawel2006 8.24GB-4.png







VIP会员免费任意下载本站所有资源!---点击开通
回复

使用道具 举报

懒得打字嘛,点击右侧快捷回复 【右侧内容,后台自定义】
您需要登录后才可以回帖 登录 | 立即注册

本版积分规则

QQ|Archiver|手机版|小黑屋| 中国高清网 |网站地图

GMT+8, 2019-11-22 05:28 , Processed in 0.244728 second(s), 37 queries .

Powered by HDchina X3.4

Copyright 2017-2019©HDchina.All right reserved

返回顶部 联系我们