查看: 8|回复: 0

[喜剧片] 前妻俱乐部/原配夫人俱乐部 The.First.Wives.Club.1996.1080p.AMZN.WEBRip.DD5.1.x264-monkee 10.73GB

[复制链接]

 成长值: 3160

级别:资源管理组

注册时间
2017-10-20
最后登录
2019-11-15
听众
1
收听
0
主题
86768
蓝光币
61946 枚
贡献
11126 点
发表于 2019-11-5 16:14:26 | 显示全部楼层 |阅读模式
前妻俱乐部/原配夫人俱乐部 The.First.Wives.Club.1996.1080p.AMZN.WEBRip.DD5.1.x264-monkee 10.73GB-1.png

译  名 前妻俱乐部 / 原配夫人俱乐部 / 大妻子俱乐部 / 第一夫人俱乐部
片  名 The First Wives Club
年  代 1996
产  地 美国
类  别 笑剧
语  言 英语
上映日期 1996-11-14
IMDb评分  6.4/10 from 39473 users
IMDb链接  https://www.imdb.com/title/tt0116313
豆瓣评分 6.9/10 from 1375 users
豆瓣链接 https://movie.douban.com/subject/1296865/
片  长 103 分钟
导  演 休·威尔逊 Hugh Wilson
编  剧 Olivia Goldsmith / Robert Harling
主  演 黛安·基顿 Diane Keaton
       歌蒂·韩 Goldie Hawn
       贝特·米德勒 Bette Midler
       玛吉·史姑娘 Maggie Smith


标  签 笑剧 | 女性 | 美国 | 美国电影 | 1996 | DianeKeaton | 电影 | 女人

简  介  

  三位大妹好友布兰达(贝特?米德勒 饰)、埃利斯(歌蒂?韩 饰)、安妮黛安?基顿 饰)分开大妹后各奔前程。但她们的婚姻是类似的,她们各自的丈夫都爱上了此外女人。虽然她们都把青春进献给了自己的丈夫,辅佐丈夫名成利就,但她们还是无可避免都被丈夫抛弃了,成为了弃妇。
  三位昔日的好友成为了相互之间的倾吐工具,难省得惺惺相惜一番。而她们更做出了一个重要的决议,团结分歧的她们要对她们无情的丈夫们实行报复,组成了一支“前期俱乐部”,务求成功履行她们的计划……

获奖情况  

  第69届奥斯卡金像奖(1997)
  音乐/笑剧片最好原创配乐(提名) 马克·夏曼
  1. Video
  2. ID                                       : 1
  3. Format                                   : AVC
  4. Format/Info                              : Advanced Video Codec
  5. Format profile                           : High@L4
  6. Format settings                          : CABAC / 4 Ref Frames
  7. Format settings, CABAC                   : Yes
  8. Format settings, Reference frames        : 4 frames
  9. Codec ID                                 : V_MPEG4/ISO/AVC
  10. Duration                                 : 1 h 42 min
  11. Bit rate mode                            : Variable
  12. Bit rate                                 : 14.4 Mb/s
  13. Maximum bit rate                         : 15.0 Mb/s
  14. Width                                    : 1 920 pixels
  15. Height                                   : 1 080 pixels
  16. Display aspect ratio                     : 16:9
  17. Frame rate mode                          : Constant
  18. Frame rate                               : 23.976 (24000/1001) FPS
  19. Color space                              : YUV
  20. Chroma subsampling                       : 4:2:0
  21. Bit depth                                : 8 bits
  22. Scan type                                : Progressive
  23. Bits/(Pixel*Frame)                       : 0.289
  24. Stream size                              : 10.3 GiB (96%)
  25. Default                                  : Yes
  26. Forced                                   : No
  27. Color range                              : Limited
  28. Color primaries                          : BT.709
  29. Transfer characteristics                 : BT.709
  30. Matrix coefficients                      : BT.709

  31. Audio
  32. ID                                       : 3
  33. Format                                   : E-AC-3
  34. Format/Info                              : Enhanced AC-3
  35. Commercial name                          : Dolby Digital Plus
  36. Codec ID                                 : A_EAC3
  37. Duration                                 : 1 h 42 min
  38. Bit rate mode                            : Constant
  39. Bit rate                                 : 640 kb/s
  40. Channel(s)                               : 6 channels
  41. Channel layout                           : L R C LFE Ls Rs
  42. Sampling rate                            : 48.0 kHz
  43. Frame rate                               : 31.250 FPS (1536 SPF)
  44. Compression mode                         : Lossy
  45. Stream size                              : 468 MiB (4%)
  46. Language                                 : English
  47. Service kind                             : Complete Main
  48. Default                                  : Yes
  49. Forced                                   : No

  50. Text
  51. ID                                       : 2
  52. Format                                   : UTF-8
  53. Codec ID                                 : S_TEXT/UTF8
  54. Codec ID/Info                            : UTF-8 Plain Text
  55. Duration                                 : 1 h 42 min
  56. Bit rate                                 : 89 b/s
  57. Count of elements                        : 2550
  58. Stream size                              : 67.0 KiB (0%)
  59. Language                                 : English
  60. Default                                  : No
  61. Forced                                   : No
复制代码

前妻俱乐部/原配夫人俱乐部 The.First.Wives.Club.1996.1080p.AMZN.WEBRip.DD5.1.x264-monkee 10.73GB-2.png 前妻俱乐部/原配夫人俱乐部 The.First.Wives.Club.1996.1080p.AMZN.WEBRip.DD5.1.x264-monkee 10.73GB-3.png 前妻俱乐部/原配夫人俱乐部 The.First.Wives.Club.1996.1080p.AMZN.WEBRip.DD5.1.x264-monkee 10.73GB-4.png 前妻俱乐部/原配夫人俱乐部 The.First.Wives.Club.1996.1080p.AMZN.WEBRip.DD5.1.x264-monkee 10.73GB-5.png 前妻俱乐部/原配夫人俱乐部 The.First.Wives.Club.1996.1080p.AMZN.WEBRip.DD5.1.x264-monkee 10.73GB-6.png 前妻俱乐部/原配夫人俱乐部 The.First.Wives.Club.1996.1080p.AMZN.WEBRip.DD5.1.x264-monkee 10.73GB-7.png







VIP会员免费任意下载本站所有资源!---点击开通
回复

使用道具 举报

懒得打字嘛,点击右侧快捷回复 【右侧内容,后台自定义】
您需要登录后才可以回帖 登录 | 立即注册

本版积分规则

QQ|Archiver|手机版|小黑屋| 中国高清网 |网站地图 

GMT+8, 2019-11-15 20:13 , Processed in 0.221995 second(s), 37 queries .

Powered by HDchina X3.4

Copyright 2017-2019©HDchina.All right reserved

返回顶部 联系我们