查看: 6|回复: 0

[惊悚片] 血棱镜 Blood.Prism.2017.1080p.AMZN.WEBRip.DDP2.0.x264-NTb 2.65GB

[复制链接]

 成长值: 3210

级别:资源管理组

注册时间
2017-10-20
最后登录
2019-11-20
听众
1
收听
0
主题
87221
蓝光币
63004 枚
贡献
11580 点
发表于 2019-11-5 16:09:37 | 显示全部楼层 |阅读模式
血棱镜 Blood.Prism.2017.1080p.AMZN.WEBRip.DDP2.0.x264-NTb 2.65GB-1.png

译  名 血棱镜
片  名 Blood Prism
年  代 2018
产  地 美国
类  别 惊悚 / 可骇
语  言 英语
上映日期 2017-12-12(美国)
IMDb评分  2.7/10 from 115 users
IMDb链接  https://www.imdb.com/title/tt6130118
豆瓣评分 0/10 from 0 users
豆瓣链接 https://movie.douban.com/subject/30177911/
片  长 76分钟
导  演 Len Kabasinski
编  剧 Len Kabasinski / Alicia Seguin
主  演 Len Kabasinski, Lisa Neeld, Frederick Williams


简  介  

  A successful artist and local art museum coordinator ("Cecilia") hears voices telling her to release 'troubled" individuals from this earth and into the serenity of the afterlife. Cecilia, now leading the life of a full-time serial killer, preys on the depressed, distraught, and hopeless as she attempts to find meaning behind the voices she hears. However, Cecilia meets a young man ("Lucas") who just may fill the void in her heart she has been missing her entire life.....the problem being Lucas is a suicidal, depressed man. Cecilia struggles between what her heart is telling her and what her voices are telling her about him. A story of love, life, and death.
  1. Video
  2. ID                                       : 1
  3. Format                                   : AVC
  4. Format/Info                              : Advanced Video Codec
  5. Format profile                           : High@L4
  6. Format settings                          : CABAC / 4 Ref Frames
  7. Format settings, CABAC                   : Yes
  8. Format settings, Reference frames        : 4 frames
  9. Codec ID                                 : V_MPEG4/ISO/AVC
  10. Duration                                 : 1 h 16 min
  11. Bit rate mode                            : Variable
  12. Bit rate                                 : 4 729 kb/s
  13. Maximum bit rate                         : 15.0 Mb/s
  14. Width                                    : 1 920 pixels
  15. Height                                   : 816 pixels
  16. Display aspect ratio                     : 2.35:1
  17. Frame rate mode                          : Constant
  18. Frame rate                               : 24.000 FPS
  19. Color space                              : YUV
  20. Chroma subsampling                       : 4:2:0
  21. Bit depth                                : 8 bits
  22. Scan type                                : Progressive
  23. Bits/(Pixel*Frame)                       : 0.126
  24. Stream size                              : 2.53 GiB (95%)
  25. Default                                  : Yes
  26. Forced                                   : No
  27. Color range                              : Limited
  28. Color primaries                          : BT.709
  29. Transfer characteristics                 : BT.709
  30. Matrix coefficients                      : BT.709

  31. Audio
  32. ID                                       : 2
  33. Format                                   : E-AC-3
  34. Format/Info                              : Enhanced AC-3
  35. Commercial name                          : Dolby Digital Plus
  36. Codec ID                                 : A_EAC3
  37. Duration                                 : 1 h 16 min
  38. Bit rate mode                            : Constant
  39. Bit rate                                 : 224 kb/s
  40. Channel(s)                               : 2 channels
  41. Channel layout                           : L R
  42. Sampling rate                            : 48.0 kHz
  43. Frame rate                               : 31.250 FPS (1536 SPF)
  44. Compression mode                         : Lossy
  45. Stream size                              : 123 MiB (5%)
  46. Language                                 : English
  47. Service kind                             : Complete Main
  48. Default                                  : Yes
  49. Forced                                   : No

  50. Text #1
  51. ID                                       : 3
  52. Format                                   : UTF-8
  53. Codec ID                                 : S_TEXT/UTF8
  54. Codec ID/Info                            : UTF-8 Plain Text
  55. Duration                                 : 1 h 7 min
  56. Bit rate                                 : 44 b/s
  57. Count of elements                        : 610
  58. Stream size                              : 21.9 KiB (0%)
  59. Language                                 : English
  60. Default                                  : No
  61. Forced                                   : No

  62. Text #2
  63. ID                                       : 4
  64. Format                                   : UTF-8
  65. Codec ID                                 : S_TEXT/UTF8
  66. Codec ID/Info                            : UTF-8 Plain Text
  67. Duration                                 : 1 h 12 min
  68. Bit rate                                 : 44 b/s
  69. Count of elements                        : 654
  70. Stream size                              : 23.6 KiB (0%)
  71. Title                                    : SDH
  72. Language                                 : English
  73. Default                                  : No
  74. Forced                                   : No
复制代码

血棱镜 Blood.Prism.2017.1080p.AMZN.WEBRip.DDP2.0.x264-NTb 2.65GB-2.png 血棱镜 Blood.Prism.2017.1080p.AMZN.WEBRip.DDP2.0.x264-NTb 2.65GB-3.png 血棱镜 Blood.Prism.2017.1080p.AMZN.WEBRip.DDP2.0.x264-NTb 2.65GB-4.png







VIP会员免费任意下载本站所有资源!---点击开通
回复

使用道具 举报

懒得打字嘛,点击右侧快捷回复 【右侧内容,后台自定义】
您需要登录后才可以回帖 登录 | 立即注册

本版积分规则

QQ|Archiver|手机版|小黑屋| 中国高清网 |网站地图

GMT+8, 2019-11-20 09:14 , Processed in 0.246203 second(s), 37 queries .

Powered by HDchina X3.4

Copyright 2017-2019©HDchina.All right reserved

返回顶部 联系我们