查看: 8|回复: 0

[喜剧片] 浪子攻略 Def.Jams.How.to.Be.a.Player.1997.1080p.AMZN.WEBRip.DDP2.0.x264-QOQ 8.63GB

[复制链接]

 成长值: 3230

级别:资源管理组

注册时间
2017-10-20
最后登录
2019-11-21
听众
1
收听
0
主题
87390
蓝光币
63616 枚
贡献
11749 点
发表于 2019-11-5 16:07:41 | 显示全部楼层 |阅读模式
浪子攻略 Def.Jams.How.to.Be.a.Player.1997.1080p.AMZN.WEBRip.DDP2.0.x264-QOQ 8.63GB-1.png

译  名 浪子攻略
片  名 How to Be a Player
年  代 1997
产  地 美国
类  别 笑剧
语  言 英语
上映日期 1997
IMDb评分  5.3/10 from 8480 users
IMDb链接  https://www.imdb.com/title/tt0119326
豆瓣评分 0/10 from 0 users
豆瓣链接 https://movie.douban.com/subject/5109221/
片  长 93 分钟
导  演 Lionel C. Martin
编  剧 Mark Brown

标  签 安贝尔·史姑娘 | 黑人 | 美国 | 笑剧 | black | 1997

简  介  

  暂无相关剧情先容
  1. Video
  2. ID                                       : 1
  3. Format                                   : AVC
  4. Format/Info                              : Advanced Video Codec
  5. Format profile                           : High@L4
  6. Format settings                          : CABAC / 4 Ref Frames
  7. Format settings, CABAC                   : Yes
  8. Format settings, Reference frames        : 4 frames
  9. Codec ID                                 : V_MPEG4/ISO/AVC
  10. Duration                                 : 1 h 34 min
  11. Bit rate mode                            : Variable
  12. Bit rate                                 : 12.9 Mb/s
  13. Maximum bit rate                         : 15.0 Mb/s
  14. Width                                    : 1 920 pixels
  15. Height                                   : 1 080 pixels
  16. Display aspect ratio                     : 16:9
  17. Frame rate mode                          : Constant
  18. Frame rate                               : 23.976 (24000/1001) FPS
  19. Color space                              : YUV
  20. Chroma subsampling                       : 4:2:0
  21. Bit depth                                : 8 bits
  22. Scan type                                : Progressive
  23. Bits/(Pixel*Frame)                       : 0.260
  24. Stream size                              : 8.48 GiB (98%)
  25. Default                                  : Yes
  26. Forced                                   : No
  27. Color range                              : Limited
  28. Color primaries                          : BT.709
  29. Transfer characteristics                 : BT.709
  30. Matrix coefficients                      : BT.709

  31. Audio
  32. ID                                       : 2
  33. Format                                   : E-AC-3
  34. Format/Info                              : Enhanced AC-3
  35. Commercial name                          : Dolby Digital Plus
  36. Codec ID                                 : A_EAC3
  37. Duration                                 : 1 h 34 min
  38. Bit rate mode                            : Constant
  39. Bit rate                                 : 224 kb/s
  40. Channel(s)                               : 2 channels
  41. Channel layout                           : L R
  42. Sampling rate                            : 48.0 kHz
  43. Frame rate                               : 31.250 FPS (1536 SPF)
  44. Compression mode                         : Lossy
  45. Stream size                              : 151 MiB (2%)
  46. Language                                 : English
  47. Service kind                             : Complete Main
  48. Default                                  : Yes
  49. Forced                                   : No

  50. Text
  51. ID                                       : 3
  52. Format                                   : UTF-8
  53. Codec ID                                 : S_TEXT/UTF8
  54. Codec ID/Info                            : UTF-8 Plain Text
  55. Duration                                 : 1 h 33 min
  56. Bit rate                                 : 94 b/s
  57. Count of elements                        : 1905
  58. Stream size                              : 64.9 KiB (0%)
  59. Language                                 : English
  60. Default                                  : No
  61. Forced                                   : No
复制代码

浪子攻略 Def.Jams.How.to.Be.a.Player.1997.1080p.AMZN.WEBRip.DDP2.0.x264-QOQ 8.63GB-2.png 160659pyeexek6wkvvcdyz.png 浪子攻略 Def.Jams.How.to.Be.a.Player.1997.1080p.AMZN.WEBRip.DDP2.0.x264-QOQ 8.63GB-4.png 浪子攻略 Def.Jams.How.to.Be.a.Player.1997.1080p.AMZN.WEBRip.DDP2.0.x264-QOQ 8.63GB-5.png 浪子攻略 Def.Jams.How.to.Be.a.Player.1997.1080p.AMZN.WEBRip.DDP2.0.x264-QOQ 8.63GB-6.png 浪子攻略 Def.Jams.How.to.Be.a.Player.1997.1080p.AMZN.WEBRip.DDP2.0.x264-QOQ 8.63GB-7.png







VIP会员免费任意下载本站所有资源!---点击开通
回复

使用道具 举报

懒得打字嘛,点击右侧快捷回复 【右侧内容,后台自定义】
您需要登录后才可以回帖 登录 | 立即注册

本版积分规则

QQ|Archiver|手机版|小黑屋| 中国高清网 |网站地图

GMT+8, 2019-11-22 06:03 , Processed in 0.219428 second(s), 37 queries .

Powered by HDchina X3.4

Copyright 2017-2019©HDchina.All right reserved

返回顶部 联系我们