查看: 9|回复: 0

[动画片] 萨尔玛的夙愿 Salmas.Big.Wish.2019.1080p.WEBRip.x264-RARBG 1.61GB

[复制链接]

 成长值: 3160

级别:资源管理组

注册时间
2017-10-20
最后登录
2019-11-15
听众
1
收听
0
主题
86812
蓝光币
61954 枚
贡献
11170 点
发表于 2019-11-5 16:03:13 | 显示全部楼层 |阅读模式
155626fcvvocccrgotoobv.png

译  名 萨尔玛的宿愿 / Salma's Big Wish
片  名 Dia de Muertos
年  代 2019
产  地 墨西哥
类  别 动画 / 家庭 / 奇异
语  言 英语 / 西班牙语 / 法语
上映日期 2019-10-25(西班牙)
IMDb评分  6.3/10 from 91 users
IMDb链接  https://www.imdb.com/title/tt4500214
豆瓣评分 0/10 from 0 users
豆瓣链接 https://movie.douban.com/subject/33412988/
片  长 89分钟
导  演 Carlos Gutiérrez Medrano
主  演 Camila Amezcua
       Rocco Amezcua
       Connor Andrade
       迪诺·安德拉德 Dino Andrade
       Dani Artaud
       苏珊娜·巴列斯特罗斯 Susana Ballesteros
       Luis Dubuc


标  签 上海电影节 | 2019 | 墨西哥 | SIFF | 墨西哥电影 | MOVIE | 成片 | B南美

简  介  

  在墨西哥的圣克拉拉镇,住着一个十六岁的孤儿萨尔玛。她从未见过亲生怙恃,人们一向告诉她怙恃抛弃了她。萨尔玛平生中的大部分时候都在寻觅关于怙恃的身份和着落的线索,但荣幸女神似乎从未来临,直到她发现了一本特此外书,里面布满了发生在圣克拉拉的故事以及当地居民的历史。带着这本书,萨尔玛和她的两个勇敢而暖和的养兄弟豪尔赫和佩德罗踏上了一段冒险之旅,寻觅自己与家属历史之间的联系,希望终极能见到失散多年的怙恃。

获奖情况  

  第29届安锡国际动画节(2019)
  长篇动画单元 最好故事片(提名) Carlos Gutiérrez Medrano
  1. Video
  2. ID                                       : 1
  3. Format                                   : AVC
  4. Format/Info                              : Advanced Video Codec
  5. Format profile                           : High@L4
  6. Format settings                          : CABAC / 4 Ref Frames
  7. Format settings, CABAC                   : Yes
  8. Format settings, Reference frames        : 4 frames
  9. Codec ID                                 : avc1
  10. Codec ID/Info                            : Advanced Video Coding
  11. Duration                                 : 1 h 24 min
  12. Bit rate                                 : 2 500 kb/s
  13. Width                                    : 1 912 pixels
  14. Height                                   : 800 pixels
  15. Display aspect ratio                     : 2.40:1
  16. Frame rate mode                          : Constant
  17. Frame rate                               : 25.000 FPS
  18. Color space                              : YUV
  19. Chroma subsampling                       : 4:2:0
  20. Bit depth                                : 8 bits
  21. Scan type                                : Progressive
  22. Bits/(Pixel*Frame)                       : 0.065
  23. Stream size                              : 1.48 GiB (92%)
  24. Writing library                          : x264 core 152 r2851M ba24899
  25. Encoding settings                        : cabac=1 / ref=4 / deblock=1:-1:-1 / analyse=0x3:0x113 / me=umh / subme=9 / psy=1 / psy_rd=1.00:0.15 / mixed_ref=1 / me_range=24 / chroma_me=1 / trellis=2 / 8x8dct=1 / cqm=0 / deadzone=21,11 / fast_pskip=1 / chroma_qp_offset=-3 / threads=32 / lookahead_threads=4 / sliced_threads=0 / nr=0 / decimate=1 / interlaced=0 / bluray_compat=0 / constrained_intra=0 / bframes=3 / b_pyramid=2 / b_adapt=2 / b_bias=0 / direct=3 / weightb=1 / open_gop=0 / weightp=2 / keyint=250 / keyint_min=25 / scenecut=40 / intra_refresh=0 / rc_lookahead=50 / rc=2pass / mbtree=1 / bitrate=2500 / ratetol=1.0 / qcomp=0.60 / qpmin=0 / qpmax=69 / qpstep=4 / cplxblur=20.0 / qblur=0.5 / vbv_maxrate=31250 / vbv_bufsize=31250 / nal_hrd=none / filler=0 / ip_ratio=1.40 / aq=3:1.00
  26. Encoded date                             : UTC 2019-11-04 12:43:56
  27. Tagged date                              : UTC 2019-11-04 12:43:56
  28. Codec configuration box                  : avcC

  29. Audio
  30. ID                                       : 2
  31. Format                                   : AAC LC
  32. Format/Info                              : Advanced Audio Codec Low Complexity
  33. Codec ID                                 : mp4a-40-2
  34. Duration                                 : 1 h 24 min
  35. Bit rate mode                            : Constant
  36. Bit rate                                 : 224 kb/s
  37. Channel(s)                               : 6 channels
  38. Channel layout                           : C L R Ls Rs LFE
  39. Sampling rate                            : 48.0 kHz
  40. Frame rate                               : 46.875 FPS (1024 SPF)
  41. Compression mode                         : Lossy
  42. Stream size                              : 135 MiB (8%)
  43. Language                                 : English
  44. Default                                  : Yes
  45. Alternate group                          : 1
  46. Encoded date                             : UTC 2019-11-04 12:43:56
  47. Tagged date                              : UTC 2019-11-04 12:43:56
复制代码

萨尔玛的宿愿 Salmas.Big.Wish.2019.1080p.WEBRip.x264-RARBG 1.61GB-2.png 萨尔玛的宿愿 Salmas.Big.Wish.2019.1080p.WEBRip.x264-RARBG 1.61GB-3.png 萨尔玛的宿愿 Salmas.Big.Wish.2019.1080p.WEBRip.x264-RARBG 1.61GB-4.png







VIP会员免费任意下载本站所有资源!---点击开通
回复

使用道具 举报

懒得打字嘛,点击右侧快捷回复 【右侧内容,后台自定义】
您需要登录后才可以回帖 登录 | 立即注册

本版积分规则

QQ|Archiver|手机版|小黑屋| 中国高清网 |网站地图 

GMT+8, 2019-11-15 21:35 , Processed in 0.249830 second(s), 37 queries .

Powered by HDchina X3.4

Copyright 2017-2019©HDchina.All right reserved

返回顶部 联系我们