查看: 16|回复: 0

[动作片] 冲击波 Shockwave.2017.1080p.WEB-DL.DD5.1.H264-FGT 3.10GB

[复制链接]

 成长值: 3160

级别:资源管理组

注册时间
2017-10-20
最后登录
2019-11-11
听众
1
收听
0
主题
86761
蓝光币
61861 枚
贡献
11119 点
发表于 2019-11-5 15:52:12 | 显示全部楼层 |阅读模式
冲击波 Shockwave.2017.1080p.WEB-DL.DD5.1.H264-FGT 3.10GB-1.png

译  名 冲击波 / 2020 / Hell Storm: Countdown to Disaster / Shockwave: Countdown to Disaster
片  名 Shockwave
年  代 2017
产  地 美国
类  别 行动 / 科幻 / 冒险 / 灾难
语  言 英语
上映日期 2017-09-02(日本部分上映) / 2018-12-28(美国部分上映)
IMDb评分  5.4/10 from 1193 users
IMDb链接  https://www.imdb.com/title/tt6727598
豆瓣评分 0/10 from 0 users
豆瓣链接 https://movie.douban.com/subject/27154607/
片  长 90分钟
导  演 尼克里昂 Nick Lyon
编  剧 Blaine Chiappetta / 拉斐尔·乔丹 Rafael Jordan / Ari Novak
主  演 斯塔西·奥里斯塔诺 Stacey Oristano
       里比·希利斯 Rib Hillis
       Ed Amatrudo
       布鲁斯·托马斯 Bruce Thomas
       泰勒·佩雷斯 Tyler Perez
       摩根·林霍尔姆 Morgan Lindholm
       Evan Sloan
       迈克·卡波齐 Mike Capozzi
       杰森·卡贝尔 Jason Cabell
       乔希·克罗蒂 Josh Crotty
       Cassidy Schiltz
       克里斯·阿斯沃思 Chris Ashworth


标  签 灾难 | 惊悚 | 科幻 | 冒险

简  介  

  A stolen seismic weapon is activated in Yemen. A hostage freed there tries in vain to warn against it's global effect. It starts seismic activity at the Californian fault line where her daughter and ex are monitoring it. Can they stop it?
  1. Video
  2. ID                                       : 1
  3. Format                                   : AVC
  4. Format/Info                              : Advanced Video Codec
  5. Format profile                           : High@L4
  6. Format settings                          : CABAC / 4 Ref Frames
  7. Format settings, CABAC                   : Yes
  8. Format settings, Reference frames        : 4 frames
  9. Format settings, GOP                     : N=1
  10. Codec ID                                 : V_MPEG4/ISO/AVC
  11. Duration                                 : 1 h 20 min
  12. Bit rate                                 : 5 134 kb/s
  13. Width                                    : 1 916 pixels
  14. Height                                   : 1 076 pixels
  15. Display aspect ratio                     : 16:9
  16. Frame rate mode                          : Constant
  17. Frame rate                               : 25.000 FPS
  18. Color space                              : YUV
  19. Chroma subsampling                       : 4:2:0
  20. Bit depth                                : 8 bits
  21. Scan type                                : Progressive
  22. Bits/(Pixel*Frame)                       : 0.100
  23. Stream size                              : 2.88 GiB (93%)
  24. Title                                    : Shockwave.2017.1080p.WEB-DL.DD5.1.H264-FGT
  25. Language                                 : English
  26. Default                                  : Yes
  27. Forced                                   : No
  28. Color range                              : Limited
  29. Color primaries                          : BT.709
  30. Transfer characteristics                 : BT.709
  31. Matrix coefficients                      : BT.709

  32. Audio
  33. ID                                       : 2
  34. Format                                   : AC-3
  35. Format/Info                              : Audio Coding 3
  36. Commercial name                          : Dolby Digital
  37. Codec ID                                 : A_AC3
  38. Duration                                 : 1 h 20 min
  39. Bit rate mode                            : Constant
  40. Bit rate                                 : 384 kb/s
  41. Channel(s)                               : 6 channels
  42. Channel layout                           : L R C LFE Ls Rs
  43. Sampling rate                            : 48.0 kHz
  44. Frame rate                               : 31.250 FPS (1536 SPF)
  45. Bit depth                                : 16 bits
  46. Compression mode                         : Lossy
  47. Stream size                              : 221 MiB (7%)
  48. Title                                    : Shockwave.2017.1080p.WEB-DL.DD5.1.H264-FGT
  49. Language                                 : English
  50. Service kind                             : Complete Main
  51. Default                                  : Yes
  52. Forced                                   : No

  53. Menu
  54. 00:00:00.000                             : en:1
  55. 00:19:24.000                             : en:2
  56. 00:36:31.000                             : en:3
  57. 00:56:38.000                             : en:4
  58. 01:17:10.000                             : en:5
复制代码

冲击波 Shockwave.2017.1080p.WEB-DL.DD5.1.H264-FGT 3.10GB-2.png 冲击波 Shockwave.2017.1080p.WEB-DL.DD5.1.H264-FGT 3.10GB-3.png 155135m5dueoaa9eccddsi.png







VIP会员免费任意下载本站所有资源!---点击开通
回复

使用道具 举报

懒得打字嘛,点击右侧快捷回复 【右侧内容,后台自定义】
您需要登录后才可以回帖 登录 | 立即注册

本版积分规则

QQ|Archiver|手机版|小黑屋| 中国高清网 |网站地图 

GMT+8, 2019-11-15 10:52 , Processed in 0.238556 second(s), 37 queries .

Powered by HDchina X3.4

Copyright 2017-2019©HDchina.All right reserved

返回顶部 联系我们