查看: 38|回复: 3

[剧情片] 曼陀罗 Mandara.1971.720p.BluRay.x264-GHOULS 5.47GB

[复制链接]

 成长值: 3160

级别:资源管理组

注册时间
2017-10-20
最后登录
2019-11-11
听众
1
收听
0
主题
86761
蓝光币
61863 枚
贡献
11119 点
发表于 2019-11-4 20:54:40 | 显示全部楼层 |阅读模式
曼陀罗 Mandara.1971.720p.BluRay.x264-GHOULS 5.47GB-1.png 3 }9 z' ?: M5 ?9 K" F
- e! S! h" z+ n+ d, Z; u- }/ |' u
译  名 曼陀罗 / Mandara
) X$ _. \4 L$ n, v片  名 曼陀羅# A, ^( ~+ h! C; u
年  代 1971
1 n1 P0 B, E0 l7 s9 t, ]产  地 日本5 e$ c# j, p% q  X5 j  r' j3 U
类  别 剧情
3 X  [4 D8 l; y1 s+ C# \语  言 日语/ S4 s( v5 l' U- m
上映日期 19712 Z' A' Z" X) ?3 E( u* N0 _
IMDb评分  6.9/10 from 197 users
* l7 ]  B# h+ k( I$ T. E! k9 HIMDb链接  https://www.imdb.com/title/tt0229553
3 g0 ?) z/ u8 [8 D. b) T' ^) k4 {豆瓣评分 6.4/10 from 470 users
; Z2 `3 H! A/ `- L8 X9 m" O: C0 z6 N+ K  I豆瓣链接 https://movie.douban.com/subject/1417997/
5 p% ~! f5 V7 _( d% l0 {1 D片  长 135分钟& @8 U9 ^$ Y. t$ E
导  演 实相寺昭雄 Akio Jissoji3 }( G/ c8 m5 w% i* N- x8 H- m* N
编  剧 石堂淑朗 Toshir? Ishid?
' X* x9 Z! q# u. f4 L主  演 岸田森 Shin Kishida! W2 ^6 _4 n0 ^3 y* Q" f+ a0 l5 T6 m
       清水綋治 K?ji Shimizu& p( B  {) v7 F2 W5 Y
       樱井浩子 Hiroko Sakurai
3 D' l" r( I, @; C       田村亮 Ryo Tamura
  j8 I% q- Z- E7 g' c. S) E% W4 d$ {" o5 Y  n0 {( U! l: O
0 P* L/ w1 ~/ v
标  签 日本 | 情色 | 実相寺昭雄 | 日本电影 | 实相寺昭雄 | 1971 | 尝试 | 曼陀羅. e# k" ~6 G1 H0 y
4 m8 j5 r* q9 i3 F, J+ `. D
简  介  
8 `$ k2 c5 T  _5 F! S, E1 S& h$ V* [; d5 s
  在郭贺海边的汽车旅店,两对情人——信一(清水宏治 饰)和由纪子(森秋子 饰)、阿裕(田村亮 饰)和康子(樱井浩子 饰)玩起了疯狂的换妻游戏,而这一切,都被旅店司理真木(岸田森 饰)经过房间内的摄像头一览无余。送走朋友后,信一和由纪子安步海滩,遭到了真木手下的狙击,昏迷中的二人却体验到史无前例的兴趣。$ d- G  F* ~: s
  未几后康子怀孕,她希望能与阿裕成婚,但沉迷于右翼妹生活动的男友却对婚姻提不起半点爱好。而心中存有疑问的信一和由纪子再次造访汽车旅店,真木则将两人带入一个藏匿于森林中的奇异的乌托邦社会……0 U) s$ I% V' W5 h+ `  M
  1. Video
    5 i6 q) \; ~" p" n6 j) d
  2. ID                                       : 1* t3 f, S% z: Z2 ~
  3. Format                                   : AVC
    % o% W; H4 O. J
  4. Format/Info                              : Advanced Video Codec' P7 z5 |* ~7 e) b, m& c4 j
  5. Format profile                           : High@L4& P5 B" K' c* K6 q( q% Y1 f
  6. Format settings                          : CABAC / 9 Ref Frames
    9 y  Z+ U0 Q5 Q/ G9 Q
  7. Format settings, CABAC                   : Yes
    " G% h' Y2 a7 D: b
  8. Format settings, Reference frames        : 9 frames
    ; z' n( d2 [; u
  9. Codec ID                                 : V_MPEG4/ISO/AVC
    8 g3 a% r% ]2 O2 f" h
  10. Duration                                 : 2 h 15 min! k: o3 D+ Z* R. h2 Y' K
  11. Bit rate                                 : 5 049 kb/s0 k" ~7 M* U. {  _0 X. P
  12. Width                                    : 1 280 pixels
    ) m" |( g5 Z  e
  13. Height                                   : 696 pixels: {- N4 b! A0 y% r: A1 p' I: Y7 h2 o
  14. Display aspect ratio                     : 1.85:12 |; t. x. q: P
  15. Frame rate mode                          : Constant
    ' x; W3 f( g  E8 A8 ^% X4 D, I3 ^
  16. Frame rate                               : 23.976 (24000/1001) FPS
    - o1 W4 s; i2 U) L2 L( h9 _
  17. Color space                              : YUV' }9 y. _& i& K+ W
  18. Chroma subsampling                       : 4:2:0
    : {  j! Z8 j; ]$ k: y
  19. Bit depth                                : 8 bits
    / R8 o# F  O6 |! H- k0 z& [
  20. Scan type                                : Progressive
    / P3 I# V) B, h+ p6 y
  21. Bits/(Pixel*Frame)                       : 0.2361 |' E  t6 f! D% x" Q
  22. Stream size                              : 4.78 GiB (87%)
    . }3 m! \( h+ z0 \2 t$ r( h
  23. Writing library                          : x264 core 158 r2984 3759fcb
    4 i% X# N; G9 M9 J$ M. P/ K, `
  24. Encoding settings                        : cabac=1 / ref=9 / deblock=1:-3:-3 / analyse=0x3:0x133 / me=umh / subme=9 / psy=1 / psy_rd=1.00:0.00 / mixed_ref=1 / me_range=24 / chroma_me=1 / trellis=1 / 8x8dct=1 / cqm=0 / deadzone=21,11 / fast_pskip=0 / chroma_qp_offset=-2 / threads=22 / lookahead_threads=3 / sliced_threads=0 / nr=0 / decimate=1 / interlaced=0 / bluray_compat=0 / constrained_intra=0 / bframes=8 / b_pyramid=2 / b_adapt=2 / b_bias=0 / direct=3 / weightb=1 / open_gop=0 / weightp=2 / keyint=250 / keyint_min=23 / scenecut=40 / intra_refresh=0 / rc_lookahead=60 / rc=2pass / mbtree=1 / bitrate=5049 / ratetol=1.0 / qcomp=0.60 / qpmin=0 / qpmax=69 / qpstep=4 / cplxblur=20.0 / qblur=0.5 / vbv_maxrate=62500 / vbv_bufsize=78125 / nal_hrd=none / filler=0 / ip_ratio=1.40 / aq=1:1.00' [; {6 F& C# V4 Q
  25. Default                                  : Yes: q2 q% x( K$ k  M7 w) h) K: ?0 }
  26. Forced                                   : No
    ; A  P% x/ I6 [! g; n
  27. ) C8 L" I  o0 Y! e6 c, i
  28. Audio/ o& t3 J3 J2 q9 a: z4 ]( N: w, Q
  29. ID                                       : 2
    6 }+ E+ T6 p4 |
  30. Format                                   : FLAC4 w7 ~7 n; k# O( s/ [2 m: n
  31. Format/Info                              : Free Lossless Audio Codec
    3 L! X1 h1 ?9 F5 t
  32. Codec ID                                 : A_FLAC
    1 M. I8 Z( I5 O1 C) [
  33. Duration                                 : 2 h 15 min
    9 B( W. b% [: m1 |( x! [
  34. Bit rate mode                            : Variable2 ?5 N. B+ }* M) ^
  35. Bit rate                                 : 725 kb/s
    2 ?' a! C* N: M, S% E
  36. Channel(s)                               : 1 channel
    / `  }# k" F% G( ?. M# N7 r) Z0 I
  37. Channel layout                           : C9 L9 m5 V+ P; k/ I" @, _% o: T
  38. Sampling rate                            : 48.0 kHz
    2 O3 @$ W5 E* h/ L. E( f1 {) O9 t
  39. Frame rate                               : 10.417 FPS (4608 SPF)9 W0 k; |  T) V+ _8 G
  40. Bit depth                                : 24 bits, N1 e, p5 y  X6 u2 }6 o) f. B  w
  41. Compression mode                         : Lossless8 ]- k" O1 S; t+ V8 i$ l& m3 G5 U
  42. Stream size                              : 703 MiB (13%): g& h. u+ |2 s* Y$ _2 E) L
  43. Writing library                          : Lavf58.29.100
    8 `: C# |% b& d+ d) w; r
  44. Language                                 : Japanese
    , N: i( D  T. n. d8 m, v) H
  45. Default                                  : Yes
    0 [3 w8 C( {  ]; g3 i
  46. Forced                                   : No
    . A, B; k+ c  c3 \3 C
  47. / k7 L% U: [' [; p. F9 S' @
  48. Text, Z0 F. D  I8 ]
  49. ID                                       : 3
    6 W5 h" X1 M7 U7 e5 p( s
  50. Format                                   : UTF-87 e* x6 |# T' z8 m/ ~! G
  51. Codec ID                                 : S_TEXT/UTF8
    8 w( s$ _5 a# X& i' H/ |
  52. Codec ID/Info                            : UTF-8 Plain Text2 N$ Q$ z* e! I. q$ V/ e" N# w
  53. Duration                                 : 2 h 15 min
    / V) t1 j9 z. Y
  54. Bit rate                                 : 25 b/s3 k0 o3 F& _" D4 s; B$ {# `
  55. Count of elements                        : 698
    ( _  V2 Y7 F+ ^
  56. Stream size                              : 25.1 KiB (0%)
      q6 G/ P0 N) H
  57. Language                                 : English: A( Z/ y  b6 W  r
  58. Default                                  : Yes
    & h% A; s6 G# d* t. A
  59. Forced                                   : No
复制代码

" l4 y! Z/ Z( k# `6 g$ I 曼陀罗 Mandara.1971.720p.BluRay.x264-GHOULS 5.47GB-2.png
2 E5 J- q% C# V1 P: d$ c) W- `0 x2 s- z& ]
, a" y: f. o- ^
* `! ~* \" m# p- `
, ?& @* k7 T) _/ ]  P

+ H7 c- {2 X% U! q
! H$ [( u* x. k, l; h/ Y5 l
: q, J3 o  b- G$ j: s  C
VIP会员免费任意下载本站所有资源!---点击开通
回复

使用道具 举报

级别:专业龙套 Lv.4

注册时间
2019-4-11
最后登录
2019-11-14
听众
12
收听
0
主题
0
蓝光币
165 枚
贡献
0 点
发表于 2019-11-5 09:42:23 | 显示全部楼层
+ S( v" i2 k8 F8 S4 g5 [4 e
楼主太厉害了!楼主,电影应该很好看我觉得中国高清电影网真是个好地方!
VIP会员免费任意下载本站所有资源!---点击开通
回复

使用道具 举报

级别:一举成名 Lv.7

注册时间
2019-4-24
最后登录
2019-11-14
听众
13
收听
0
主题
0
蓝光币
194 枚
贡献
0 点
发表于 2019-11-7 08:20:32 | 显示全部楼层
楼主发贴辛苦了,谢谢楼主分享!我觉得中国高清电影网是注册对了!
VIP会员免费任意下载本站所有资源!---点击开通
回复

使用道具 举报

级别:群众演员 Lv.3

注册时间
2018-1-26
最后登录
2019-11-15
听众
3
收听
0
主题
0
蓝光币
3 枚
贡献
0 点
发表于 前天 20:34 | 显示全部楼层
██████在-线-看-片bxxp7.c o m 】██████
7 m7 W. z7 K6 v/ [
/ k8 |# s% ~. A$ v, A██████在-线-看-片
bxxp7.c o m 】██████
; y2 S7 B2 ~: f
8 [/ o2 t$ A) ]) K! Y- I██████在-线-看-片
bxxp7.c o m 】██████7 X4 A$ E$ U! n2 P- S  _

6 ^' p9 x- b6 y; Q██████在-线-看-片
bxxp7.c o m 】██████& d) U4 b! W. _. }2 t6 ~, d9 v0 T

5 Q7 s$ K2 w, ?' @██████在-线-看-片
bxxp7.c o m 】██████
# ]. o8 M+ U. v% d; s7 G. k, T, n4 K+ I6 {/ ?: Q
██████在-线-看-片
bxxp7.c o m 】██████3 n+ O, w+ |& T. @4 ~
8 Y" p/ I  D5 J; z+ y. O, Q! f
██████在-线-看-片
bxxp7.c o m 】██████
VIP会员免费任意下载本站所有资源!---点击开通
回复

使用道具 举报

懒得打字嘛,点击右侧快捷回复 【右侧内容,后台自定义】
您需要登录后才可以回帖 登录 | 立即注册

本版积分规则

QQ|Archiver|手机版|小黑屋| 中国高清网 |网站地图 

GMT+8, 2019-11-15 11:14 , Processed in 0.265947 second(s), 37 queries .

Powered by HDchina X3.4

Copyright 2017-2019©HDchina.All right reserved

返回顶部 联系我们