查看: 20|回复: 0

[动画片] 萨尔玛的夙愿 Salmas.Big.Wish.2019.1080p.WEB-DL.DD5.1.H264-FGT 2.90GB

[复制链接]

 成长值: 3230

级别:资源管理组

注册时间
2017-10-20
最后登录
2019-11-21
听众
1
收听
0
主题
87390
蓝光币
63614 枚
贡献
11749 点
发表于 2019-11-4 19:54:49 | 显示全部楼层 |阅读模式
195354xarjtayq1g1jtqtt.png

译  名 萨尔玛的宿愿 / Salma's Big Wish
片  名 Dia de Muertos
年  代 2019
产  地 墨西哥
类  别 动画 / 家庭 / 奇异
语  言 英语 / 西班牙语 / 法语
上映日期 2019-10-25(西班牙)
IMDb评分  6.3/10 from 91 users
IMDb链接  https://www.imdb.com/title/tt4500214
豆瓣评分 0/10 from 0 users
豆瓣链接 https://movie.douban.com/subject/33412988/
片  长 89分钟
导  演 Carlos Gutiérrez Medrano
主  演 Camila Amezcua
       Rocco Amezcua
       Connor Andrade
       迪诺·安德拉德 Dino Andrade
       Dani Artaud
       苏珊娜·巴列斯特罗斯 Susana Ballesteros
       Luis Dubuc


标  签 上海电影节 | 2019 | 墨西哥 | SIFF | 墨西哥电影 | MOVIE | 成片 | B南美

简  介  

  在墨西哥的圣克拉拉镇,住着一个十六岁的孤儿萨尔玛。她从未见过亲生怙恃,人们一向告诉她怙恃抛弃了她。萨尔玛平生中的大部分时候都在寻觅关于怙恃的身份和着落的线索,但荣幸女神似乎从未来临,直到她发现了一本特此外书,里面布满了发生在圣克拉拉的故事以及当地居民的历史。带着这本书,萨尔玛和她的两个勇敢而暖和的养兄弟豪尔赫和佩德罗踏上了一段冒险之旅,寻觅自己与家属历史之间的联系,希望终极能见到失散多年的怙恃。

获奖情况  

  第29届安锡国际动画节(2019)
  长篇动画单元 最好故事片(提名) Carlos Gutiérrez Medrano
  1. Video
  2. ID                                       : 1
  3. Format                                   : AVC
  4. Format/Info                              : Advanced Video Codec
  5. Format profile                           : High@L4
  6. Format settings                          : CABAC / 5 Ref Frames
  7. Format settings, CABAC                   : Yes
  8. Format settings, Reference frames        : 5 frames
  9. Codec ID                                 : V_MPEG4/ISO/AVC
  10. Duration                                 : 1 h 24 min
  11. Bit rate                                 : 4 528 kb/s
  12. Width                                    : 1 912 pixels
  13. Height                                   : 800 pixels
  14. Display aspect ratio                     : 2.40:1
  15. Frame rate mode                          : Constant
  16. Frame rate                               : 25.000 FPS
  17. Color space                              : YUV
  18. Chroma subsampling                       : 4:2:0
  19. Bit depth                                : 8 bits
  20. Scan type                                : Progressive
  21. Bits/(Pixel*Frame)                       : 0.118
  22. Stream size                              : 2.67 GiB (92%)
  23. Title                                    : Salmas.Big.Wish.2019.1080p.WEB-DL.DD5.1.H264-FGT
  24. Language                                 : English
  25. Default                                  : Yes
  26. Forced                                   : No
  27. Color range                              : Limited
  28. Color primaries                          : BT.709
  29. Transfer characteristics                 : BT.709
  30. Matrix coefficients                      : BT.709

  31. Audio
  32. ID                                       : 2
  33. Format                                   : AC-3
  34. Format/Info                              : Audio Coding 3
  35. Commercial name                          : Dolby Digital
  36. Codec ID                                 : A_AC3
  37. Duration                                 : 1 h 24 min
  38. Bit rate mode                            : Constant
  39. Bit rate                                 : 384 kb/s
  40. Channel(s)                               : 6 channels
  41. Channel layout                           : L R C LFE Ls Rs
  42. Sampling rate                            : 48.0 kHz
  43. Frame rate                               : 31.250 FPS (1536 SPF)
  44. Bit depth                                : 16 bits
  45. Compression mode                         : Lossy
  46. Stream size                              : 232 MiB (8%)
  47. Title                                    : Salmas.Big.Wish.2019.1080p.WEB-DL.DD5.1.H264-FGT
  48. Language                                 : English
  49. Service kind                             : Complete Main
  50. Default                                  : Yes
  51. Forced                                   : No
复制代码

萨尔玛的宿愿 Salmas.Big.Wish.2019.1080p.WEB-DL.DD5.1.H264-FGT 2.90GB-2.png 萨尔玛的宿愿 Salmas.Big.Wish.2019.1080p.WEB-DL.DD5.1.H264-FGT 2.90GB-3.png 195406k1qoqmocqyqajqux.png







VIP会员免费任意下载本站所有资源!---点击开通
回复

使用道具 举报

懒得打字嘛,点击右侧快捷回复 【右侧内容,后台自定义】
您需要登录后才可以回帖 登录 | 立即注册

本版积分规则

QQ|Archiver|手机版|小黑屋| 中国高清网 |网站地图

GMT+8, 2019-11-22 03:40 , Processed in 0.211108 second(s), 37 queries .

Powered by HDchina X3.4

Copyright 2017-2019©HDchina.All right reserved

返回顶部 联系我们