查看: 13|回复: 0

[喜剧片] 国王的赎金/绑架计中计 Kings.Ransom.2005.1080p.NF.WEBRip.DDP5.1.x264-IKA 4.39GB

[复制链接]

 成长值: 3140

级别:资源管理组

注册时间
2017-10-20
最后登录
2019-11-11
听众
1
收听
0
主题
86761
蓝光币
61613 枚
贡献
11119 点
发表于 2019-11-4 19:23:21 | 显示全部楼层 |阅读模式
国王的赎金/绑架计入彀 Kings.Ransom.2005.1080p.NF.WEBRip.DDP5.1.x264-IKA 4.39GB-1.png

译  名 国王的赎金 / 绑架计入彀
片  名 King's Ransom
年  代 2005
产  地 美国 / 加拿大
类  别 笑剧 / 犯罪
语  言 英语
上映日期 2005-04-22
IMDb评分  4.3/10 from 3466 users
IMDb链接  https://www.imdb.com/title/tt0388183
豆瓣评分 5.7/10 from 48 users
豆瓣链接 https://movie.douban.com/subject/1309204/
片  长 95 分钟
导  演 Jeffrey W. Byrd
编  剧 Wayne Conley
主  演 安东尼·安德森 Anthony Anderson
       杰·摩尔 Jay Mohr
       妮可·阿丽·帕克 Nicole Ari Parker


标  签 笑剧 | 美国 | 2005 | 犯罪 | A-美国 | 恶搞 | 存 | 剧情

简  介  

  Anthony Anderson plays a rich, egotistical businessman nobody likes. When his ex-wife plans to bleed him dry in their divorce settlement, he stages his own kidnapping with the help of his ditzy mistress and her ex-con brother. However, his plot goes awry when the people who resent him also hatch kidnap plans of their own.
  1. Video
  2. ID                                       : 1
  3. Format                                   : AVC
  4. Format/Info                              : Advanced Video Codec
  5. Format profile                           : High@L4
  6. Format settings                          : CABAC / 3 Ref Frames
  7. Format settings, CABAC                   : Yes
  8. Format settings, Reference frames        : 3 frames
  9. Codec ID                                 : V_MPEG4/ISO/AVC
  10. Duration                                 : 1 h 37 min
  11. Bit rate mode                            : Variable
  12. Bit rate                                 : 5 800 kb/s
  13. Maximum bit rate                         : 8 700 kb/s
  14. Width                                    : 1 920 pixels
  15. Height                                   : 1 080 pixels
  16. Display aspect ratio                     : 16:9
  17. Frame rate mode                          : Constant
  18. Frame rate                               : 23.976 (24000/1001) FPS
  19. Color space                              : YUV
  20. Chroma subsampling                       : 4:2:0
  21. Bit depth                                : 8 bits
  22. Scan type                                : Progressive
  23. Bits/(Pixel*Frame)                       : 0.117
  24. Stream size                              : 3.95 GiB (90%)
  25. Writing library                          : x264 core 148 r2715 7e75228
  26. Encoding settings                        : cabac=1 / ref=3 / deblock=1:0:0 / analyse=0x1:0x111 / me=umh / subme=10 / psy=1 / psy_rd=1.00:0.00 / mixed_ref=1 / me_range=24 / chroma_me=1 / trellis=2 / 8x8dct=0 / cqm=0 / deadzone=21,11 / fast_pskip=1 / chroma_qp_offset=-2 / threads=6 / lookahead_threads=1 / sliced_threads=0 / nr=0 / decimate=1 / interlaced=0 / bluray_compat=0 / stitchable=1 / constrained_intra=0 / bframes=2 / b_pyramid=0 / b_adapt=2 / b_bias=0 / direct=3 / weightb=1 / open_gop=0 / weightp=2 / keyint=250 / keyint_min=23 / scenecut=0 / intra_refresh=0 / rc_lookahead=48 / rc=2pass / mbtree=1 / bitrate=5800 / ratetol=1.0 / qcomp=0.50 / qpmin=6 / qpmax=51 / qpstep=4 / cplxblur=20.0 / qblur=0.5 / vbv_maxrate=8700 / vbv_bufsize=11600 / nal_hrd=vbr / filler=0 / ip_ratio=1.40 / aq=1:1.00
  27. Default                                  : Yes
  28. Forced                                   : No

  29. Audio
  30. ID                                       : 2
  31. Format                                   : E-AC-3
  32. Format/Info                              : Enhanced AC-3
  33. Commercial name                          : Dolby Digital Plus
  34. Codec ID                                 : A_EAC3
  35. Duration                                 : 1 h 37 min
  36. Bit rate mode                            : Constant
  37. Bit rate                                 : 640 kb/s
  38. Channel(s)                               : 6 channels
  39. Channel layout                           : L R C LFE Ls Rs
  40. Sampling rate                            : 48.0 kHz
  41. Frame rate                               : 31.250 FPS (1536 SPF)
  42. Compression mode                         : Lossy
  43. Stream size                              : 447 MiB (10%)
  44. Language                                 : English
  45. Service kind                             : Complete Main
  46. Default                                  : Yes
  47. Forced                                   : No

  48. Text
  49. ID                                       : 3
  50. Format                                   : UTF-8
  51. Codec ID                                 : S_TEXT/UTF8
  52. Codec ID/Info                            : UTF-8 Plain Text
  53. Duration                                 : 1 h 37 min
  54. Bit rate                                 : 87 b/s
  55. Count of elements                        : 3945
  56. Stream size                              : 62.0 KiB (0%)
  57. Title                                    : SDH
  58. Language                                 : English
  59. Default                                  : No
  60. Forced                                   : No
复制代码

国王的赎金/绑架计入彀 Kings.Ransom.2005.1080p.NF.WEBRip.DDP5.1.x264-IKA 4.39GB-2.png 192222qbjpj0kyspoq9ob5.png 国王的赎金/绑架计入彀 Kings.Ransom.2005.1080p.NF.WEBRip.DDP5.1.x264-IKA 4.39GB-4.png







VIP会员免费任意下载本站所有资源!---点击开通
回复

使用道具 举报

懒得打字嘛,点击右侧快捷回复 【右侧内容,后台自定义】
您需要登录后才可以回帖 登录 | 立即注册

本版积分规则

QQ|Archiver|手机版|小黑屋| 中国高清网 |网站地图 

GMT+8, 2019-11-13 17:18 , Processed in 0.208136 second(s), 37 queries .

Powered by HDchina X3.4

Copyright 2017-2019©HDchina.All right reserved

返回顶部 联系我们