查看: 39|回复: 2

[科幻片] 再造战士/宇宙战士 Universal.Soldier.1992.NEW.REMASTERED.1080p.BluRay.REMUX.AVC.DTS-HD.MA.5.1-FGT 29.07GB

[复制链接]

 成长值: 3160

级别:资源管理组

注册时间
2017-10-20
最后登录
2019-11-11
听众
1
收听
0
主题
86761
蓝光币
61813 枚
贡献
11119 点
发表于 2019-11-4 19:19:55 | 显示全部楼层 |阅读模式
再造战士/宇宙战士 Universal.Soldier.1992.NEW.REMASTERED.1080p.BluRay.REMUX.AVC.DTS-HD.MA.5.1-FGT 29.07GB-1.png

译  名 再造战士 / 宇宙战士 / 魔鬼号令
片  名 Universal Soldier
年  代 1992
产  地 美国
类  别 剧情 / 行动 / 科幻
语  言 英语
上映日期 1992-07-10
IMDb评分  6.0/10 from 78583 users
IMDb链接  https://www.imdb.com/title/tt0105698
豆瓣评分 6.6/10 from 2917 users
豆瓣链接 https://movie.douban.com/subject/1298717/
片  长 102 分钟
导  演 罗兰·艾默里奇 Roland Emmerich
编  剧 Christopher Leitch / Richard Rothstein
主  演 杜夫·朗格 Dolph Lundgren
       尚格·云顿 Jean-Claude Van Damme
       艾利·沃克 Ally Walker


标  签 科幻 | 行动 | 美国 | 尚格·云顿 | 1992 | 美国电影 | 暴力 | 行动片

简  介  

  越战后,美国政府停止了一项绝密的科妹计划。科妹家们将越战中牺牲的兵士的尸身冰冻起来,植入电脑芯片,输入战争法式,讲他们革新成为新一代的战争机械人――“宇宙战士”,这些机械人没有感情和之前的记忆,只要冰冷的杀戮兵器。兵士卢克(尚格?云顿 Jean-Claude Van Damme 饰)和班长安德鲁(杜夫?朗格 Dolph Lundgren 饰)就是其中两员,他们被派往加入一场新的战争。战争中,两人的芯片忽然出错,令两人都规复了之前的记忆。
  卢克记起越战昔时正是安德鲁忽然性情大变将部属和俘虏都杀光,误闯美军基地的女记者罗伯斯(艾丽?沃克 Ally Walker 饰)意围得悉了美军这一奥秘。原本罗伯斯难逃一死,关键时辰卢克救走了她。因而,美军派出一切的宇宙战士起头追杀二人。
  1. Video
  2. ID                                       : 1
  3. Format                                   : AVC
  4. Format/Info                              : Advanced Video Codec
  5. Format profile                           : High@L4
  6. Format settings                          : CABAC / 4 Ref Frames
  7. Format settings, CABAC                   : Yes
  8. Format settings, Reference frames        : 4 frames
  9. Codec ID                                 : V_MPEG4/ISO/AVC
  10. Duration                                 : 1 h 43 min
  11. Bit rate mode                            : Variable
  12. Bit rate                                 : 27.9 Mb/s
  13. Maximum bit rate                         : 31.0 Mb/s
  14. Width                                    : 1 920 pixels
  15. Height                                   : 1 080 pixels
  16. Display aspect ratio                     : 16:9
  17. Frame rate mode                          : Constant
  18. Frame rate                               : 24.000 FPS
  19. Color space                              : YUV
  20. Chroma subsampling                       : 4:2:0
  21. Bit depth                                : 8 bits
  22. Scan type                                : Progressive
  23. Bits/(Pixel*Frame)                       : 0.560
  24. Stream size                              : 20.1 GiB (69%)
  25. Title                                    : Universal.Soldier.1992.NEW.REMASTERED.1080p.BluRay.REMUX.AVC.DTS-HD.MA.5.1-FGT
  26. Language                                 : English
  27. Default                                  : No
  28. Forced                                   : No

  29. Audio #1
  30. ID                                       : 2
  31. Format                                   : DTS XLL
  32. Format/Info                              : Digital Theater Systems
  33. Commercial name                          : DTS-HD Master Audio
  34. Codec ID                                 : A_DTS
  35. Duration                                 : 1 h 43 min
  36. Bit rate mode                            : Variable
  37. Bit rate                                 : 4 287 kb/s
  38. Channel(s)                               : 6 channels
  39. Channel layout                           : C L R Ls Rs LFE
  40. Sampling rate                            : 48.0 kHz
  41. Frame rate                               : 93.750 FPS (512 SPF)
  42. Bit depth                                : 24 bits
  43. Compression mode                         : Lossless
  44. Stream size                              : 3.09 GiB (11%)
  45. Title                                    : Universal.Soldier.1992.NEW.REMASTERED.1080p.BluRay.REMUX.AVC.DTS-HD.MA.5.1-FGT
  46. Language                                 : English
  47. Default                                  : Yes
  48. Forced                                   : No

  49. Audio #2
  50. ID                                       : 3
  51. Format                                   : DTS XLL
  52. Format/Info                              : Digital Theater Systems
  53. Commercial name                          : DTS-HD Master Audio
  54. Codec ID                                 : A_DTS
  55. Duration                                 : 1 h 43 min
  56. Bit rate mode                            : Variable
  57. Bit rate                                 : 3 892 kb/s
  58. Channel(s)                               : 6 channels
  59. Channel layout                           : C L R Ls Rs LFE
  60. Sampling rate                            : 48.0 kHz
  61. Frame rate                               : 93.750 FPS (512 SPF)
  62. Bit depth                                : 24 bits
  63. Compression mode                         : Lossless
  64. Stream size                              : 2.81 GiB (10%)
  65. Title                                    : Universal.Soldier.1992.NEW.REMASTERED.1080p.BluRay.REMUX.AVC.DTS-HD.MA.5.1-FGT
  66. Language                                 : German
  67. Default                                  : No
  68. Forced                                   : No

  69. Audio #3
  70. ID                                       : 4
  71. Format                                   : DTS XLL
  72. Format/Info                              : Digital Theater Systems
  73. Commercial name                          : DTS-HD Master Audio
  74. Codec ID                                 : A_DTS
  75. Duration                                 : 1 h 43 min
  76. Bit rate mode                            : Variable
  77. Bit rate                                 : 3 524 kb/s
  78. Channel(s)                               : 6 channels
  79. Channel layout                           : C L R Ls Rs LFE
  80. Sampling rate                            : 48.0 kHz
  81. Frame rate                               : 93.750 FPS (512 SPF)
  82. Bit depth                                : 24 bits
  83. Compression mode                         : Lossless
  84. Stream size                              : 2.54 GiB (9%)
  85. Title                                    : Universal.Soldier.1992.NEW.REMASTERED.1080p.BluRay.REMUX.AVC.DTS-HD.MA.5.1-FGT
  86. Language                                 : French
  87. Default                                  : No
  88. Forced                                   : No

  89. Audio #4
  90. ID                                       : 5
  91. Format                                   : DTS
  92. Format/Info                              : Digital Theater Systems
  93. Codec ID                                 : A_DTS
  94. Duration                                 : 1 h 43 min
  95. Bit rate mode                            : Constant
  96. Bit rate                                 : 318 kb/s
  97. Channel(s)                               : 2 channels
  98. Channel layout                           : L R
  99. Sampling rate                            : 48.0 kHz
  100. Frame rate                               : 93.750 FPS (512 SPF)
  101. Bit depth                                : 24 bits
  102. Compression mode                         : Lossy
  103. Stream size                              : 235 MiB (1%)
  104. Title                                    : Universal.Soldier.1992.NEW.REMASTERED.1080p.BluRay.REMUX.AVC.DTS-HD.MA.5.1-FGT
  105. Language                                 : English
  106. Default                                  : No
  107. Forced                                   : No

  108. Audio #5
  109. ID                                       : 6
  110. Format                                   : DTS
  111. Format/Info                              : Digital Theater Systems
  112. Codec ID                                 : A_DTS
  113. Duration                                 : 1 h 43 min
  114. Bit rate mode                            : Constant
  115. Bit rate                                 : 318 kb/s
  116. Channel(s)                               : 2 channels
  117. Channel layout                           : L R
  118. Sampling rate                            : 48.0 kHz
  119. Frame rate                               : 93.750 FPS (512 SPF)
  120. Bit depth                                : 24 bits
  121. Compression mode                         : Lossy
  122. Stream size                              : 235 MiB (1%)
  123. Title                                    : Universal.Soldier.1992.NEW.REMASTERED.1080p.BluRay.REMUX.AVC.DTS-HD.MA.5.1-FGT
  124. Language                                 : English
  125. Default                                  : No
  126. Forced                                   : No

  127. Text #1
  128. ID                                       : 7
  129. Format                                   : UTF-8
  130. Codec ID                                 : S_TEXT/UTF8
  131. Codec ID/Info                            : UTF-8 Plain Text
  132. Duration                                 : 1 h 36 min
  133. Bit rate                                 : 47 b/s
  134. Count of elements                        : 1050
  135. Stream size                              : 33.3 KiB (0%)
  136. Title                                    : English-SRT
  137. Language                                 : English
  138. Default                                  : Yes
  139. Forced                                   : No

  140. Text #2
  141. ID                                       : 8
  142. Format                                   : UTF-8
  143. Codec ID                                 : S_TEXT/UTF8
  144. Codec ID/Info                            : UTF-8 Plain Text
  145. Duration                                 : 1 h 37 min
  146. Bit rate                                 : 57 b/s
  147. Count of elements                        : 1246
  148. Stream size                              : 40.7 KiB (0%)
  149. Title                                    : English-SDH-SRT
  150. Language                                 : English
  151. Default                                  : No
  152. Forced                                   : No

  153. Text #3
  154. ID                                       : 9
  155. Format                                   : PGS
  156. Muxing mode                              : zlib
  157. Codec ID                                 : S_HDMV/PGS
  158. Codec ID/Info                            : Picture based subtitle format used on BDs/HD-DVDs
  159. Duration                                 : 1 h 41 min
  160. Bit rate                                 : 21.6 kb/s
  161. Count of elements                        : 1660
  162. Stream size                              : 15.7 MiB (0%)
  163. Title                                    : German-PGS
  164. Language                                 : German
  165. Default                                  : No
  166. Forced                                   : No

  167. Text #4
  168. ID                                       : 10
  169. Format                                   : PGS
  170. Muxing mode                              : zlib
  171. Codec ID                                 : S_HDMV/PGS
  172. Codec ID/Info                            : Picture based subtitle format used on BDs/HD-DVDs
  173. Duration                                 : 1 h 37 min
  174. Bit rate                                 : 31.4 kb/s
  175. Count of elements                        : 2493
  176. Stream size                              : 21.8 MiB (0%)
  177. Title                                    : English-PGS
  178. Language                                 : English
  179. Default                                  : No
  180. Forced                                   : No

  181. Text #5
  182. ID                                       : 11
  183. Format                                   : PGS
  184. Muxing mode                              : zlib
  185. Codec ID                                 : S_HDMV/PGS
  186. Codec ID/Info                            : Picture based subtitle format used on BDs/HD-DVDs
  187. Duration                                 : 1 h 41 min
  188. Bit rate                                 : 17.0 kb/s
  189. Count of elements                        : 1888
  190. Stream size                              : 12.4 MiB (0%)
  191. Title                                    : French-PGS
  192. Language                                 : French
  193. Default                                  : No
  194. Forced                                   : No

  195. Text #6
  196. ID                                       : 12
  197. Format                                   : PGS
  198. Muxing mode                              : zlib
  199. Codec ID                                 : S_HDMV/PGS
  200. Codec ID/Info                            : Picture based subtitle format used on BDs/HD-DVDs
  201. Duration                                 : 1 h 38 min
  202. Bit rate                                 : 30.5 kb/s
  203. Count of elements                        : 2186
  204. Stream size                              : 21.5 MiB (0%)
  205. Title                                    : German-PGS
  206. Language                                 : German
  207. Default                                  : No
  208. Forced                                   : No

  209. Text #7
  210. ID                                       : 13
  211. Format                                   : PGS
  212. Muxing mode                              : zlib
  213. Codec ID                                 : S_HDMV/PGS
  214. Codec ID/Info                            : Picture based subtitle format used on BDs/HD-DVDs
  215. Duration                                 : 1 h 38 min
  216. Bit rate                                 : 30.5 kb/s
  217. Count of elements                        : 2188
  218. Stream size                              : 21.6 MiB (0%)
  219. Title                                    : French-PGS
  220. Language                                 : French
  221. Default                                  : No
  222. Forced                                   : No

  223. Text #8
  224. ID                                       : 14
  225. Format                                   : PGS
  226. Muxing mode                              : zlib
  227. Codec ID                                 : S_HDMV/PGS
  228. Codec ID/Info                            : Picture based subtitle format used on BDs/HD-DVDs
  229. Duration                                 : 1 h 36 min
  230. Bit rate                                 : 23.2 kb/s
  231. Count of elements                        : 1291
  232. Stream size                              : 16.0 MiB (0%)
  233. Title                                    : German-PGS
  234. Language                                 : German
  235. Default                                  : No
  236. Forced                                   : No

  237. Text #9
  238. ID                                       : 15
  239. Format                                   : PGS
  240. Muxing mode                              : zlib
  241. Codec ID                                 : S_HDMV/PGS
  242. Codec ID/Info                            : Picture based subtitle format used on BDs/HD-DVDs
  243. Duration                                 : 1 h 13 min
  244. Bit rate                                 : 174 b/s
  245. Count of elements                        : 10
  246. Stream size                              : 93.9 KiB (0%)
  247. Title                                    : German-FORCED-PGS
  248. Language                                 : German
  249. Default                                  : No
  250. Forced                                   : No

  251. Text #10
  252. ID                                       : 16
  253. Format                                   : PGS
  254. Muxing mode                              : zlib
  255. Codec ID                                 : S_HDMV/PGS
  256. Codec ID/Info                            : Picture based subtitle format used on BDs/HD-DVDs
  257. Duration                                 : 1 h 13 min
  258. Bit rate                                 : 160 b/s
  259. Count of elements                        : 10
  260. Stream size                              : 86.5 KiB (0%)
  261. Title                                    : French-FORCED-PGS
  262. Language                                 : French
  263. Default                                  : No
  264. Forced                                   : No

  265. Menu
  266. 00:00:00.000                             : en:Chapter 01
  267. 00:10:27.500                             : en:Chapter 02
  268. 00:20:51.833                             : en:Chapter 03
  269. 00:31:24.750                             : en:Chapter 04
  270. 00:42:41.333                             : en:Chapter 05
  271. 00:53:13.833                             : en:Chapter 06
  272. 01:04:07.500                             : en:Chapter 07
  273. 01:14:22.666                             : en:Chapter 08
  274. 01:21:53.333                             : en:Chapter 09
  275. 01:31:32.875                             : en:Chapter 10
复制代码

再造战士/宇宙战士 Universal.Soldier.1992.NEW.REMASTERED.1080p.BluRay.REMUX.AVC.DTS-HD.MA.5.1-FGT 29.07GB-2.png 再造战士/宇宙战士 Universal.Soldier.1992.NEW.REMASTERED.1080p.BluRay.REMUX.AVC.DTS-HD.MA.5.1-FGT 29.07GB-3.png 再造战士/宇宙战士 Universal.Soldier.1992.NEW.REMASTERED.1080p.BluRay.REMUX.AVC.DTS-HD.MA.5.1-FGT 29.07GB-4.png







VIP会员免费任意下载本站所有资源!---点击开通
回复

使用道具 举报

级别:普通观众 Lv.2

注册时间
2019-6-2
最后登录
2019-11-14
听众
6
收听
0
主题
0
蓝光币
22 枚
贡献
0 点
发表于 2019-11-6 06:19:08 | 显示全部楼层

既然你诚信诚意的推荐了,那我就勉为其难的看看吧!中国高清电影网不走平凡路。
VIP会员免费任意下载本站所有资源!---点击开通
回复

使用道具 举报

级别:群众演员 Lv.3

注册时间
2018-1-26
最后登录
2019-11-15
听众
3
收听
0
主题
0
蓝光币
3 枚
贡献
0 点
发表于 昨天 09:15 | 显示全部楼层
██████在-线-看-片bxxp7.c o m 】██████

██████在-线-看-片
bxxp7.c o m 】██████

██████在-线-看-片
bxxp7.c o m 】██████

██████在-线-看-片
bxxp7.c o m 】██████

██████在-线-看-片
bxxp7.c o m 】██████

██████在-线-看-片
bxxp7.c o m 】██████

██████在-线-看-片
bxxp7.c o m 】██████
VIP会员免费任意下载本站所有资源!---点击开通
回复

使用道具 举报

懒得打字嘛,点击右侧快捷回复 【右侧内容,后台自定义】
您需要登录后才可以回帖 登录 | 立即注册

本版积分规则

QQ|Archiver|手机版|小黑屋| 中国高清网 |网站地图 

GMT+8, 2019-11-15 07:50 , Processed in 0.300071 second(s), 37 queries .

Powered by HDchina X3.4

Copyright 2017-2019©HDchina.All right reserved

返回顶部 联系我们