查看: 10|回复: 0

[纪录片] 心竞技/免费畅玩 Free.to.Play.2014.1080p.WEBRip.x264-RARBG 1.44GB

[复制链接]

 成长值: 3230

级别:资源管理组

注册时间
2017-10-20
最后登录
2019-11-21
听众
1
收听
0
主题
87390
蓝光币
63616 枚
贡献
11749 点
发表于 2019-11-4 19:16:56 | 显示全部楼层 |阅读模式
心竞技/免费畅玩 Free.to.Play.2014.1080p.WEBRip.x264-RARBG 1.44GB-1.png

译  名 心竞技 / 免费畅玩
片  名 Free to Play
年  代 2014
产  地 美国
类  别 记载片
语  言 英语 / 汉语普通话 / 俄语 / 捷克语 / 保加利亚语 / 日语 / 德语 / 西班牙语
上映日期 2014-03-19(美国)
IMDb评分  7.9/10 from 12768 users
IMDb链接  https://www.imdb.com/title/tt3203290
豆瓣评分 8.8/10 from 6302 users
豆瓣链接 https://movie.douban.com/subject/25833522/
片  长 75分钟
导  演 Valve
主  演 Benedict Lim
       Danil Ishutin
       Clinton Loomis


标  签 记载片 | DOTA2 | 电子竞技 | 青春 | 励志 | 长大 | 美国 | 2014

简  介  

  《Free To Play》是一部记载长片。影片跟从三位分歧国家的职业电竞选手,报告他们在首届Dota 2国际约请赛中为一百万美圆的奖金奋力拼搏的故事。近几年来,电子竞技起头大幅风行,已经跻身于现今生齿基数众多的竞技活动行列中。百万奖金的赛事改变了全部电竞圈的格式,而对于正值顶峰期间的顶尖选手来说,这样的机遇也是千载难逢。经过Valve的经心打造,影片完整地记录了选手们在顶尖对决的进程中碰到的应战和做出的牺牲。

获奖情况  

  第1届豆瓣电影年度榜单(2014)
  评分最高的记载片(提名)
  1. Video
  2. ID                                       : 1
  3. Format                                   : AVC
  4. Format/Info                              : Advanced Video Codec
  5. Format profile                           : High@L4
  6. Format settings                          : CABAC / 4 Ref Frames
  7. Format settings, CABAC                   : Yes
  8. Format settings, Reference frames        : 4 frames
  9. Codec ID                                 : avc1
  10. Codec ID/Info                            : Advanced Video Coding
  11. Duration                                 : 1 h 15 min
  12. Bit rate                                 : 2 500 kb/s
  13. Width                                    : 1 920 pixels
  14. Height                                   : 816 pixels
  15. Display aspect ratio                     : 2.35:1
  16. Frame rate mode                          : Constant
  17. Frame rate                               : 23.976 (23976/1000) FPS
  18. Color space                              : YUV
  19. Chroma subsampling                       : 4:2:0
  20. Bit depth                                : 8 bits
  21. Scan type                                : Progressive
  22. Bits/(Pixel*Frame)                       : 0.067
  23. Stream size                              : 1.32 GiB (92%)
  24. Writing library                          : x264 core 152 r2851M ba24899
  25. Encoding settings                        : cabac=1 / ref=4 / deblock=1:-1:-1 / analyse=0x3:0x113 / me=umh / subme=9 / psy=1 / psy_rd=1.00:0.15 / mixed_ref=1 / me_range=24 / chroma_me=1 / trellis=2 / 8x8dct=1 / cqm=0 / deadzone=21,11 / fast_pskip=1 / chroma_qp_offset=-3 / threads=16 / lookahead_threads=4 / sliced_threads=0 / nr=0 / decimate=1 / interlaced=0 / bluray_compat=0 / constrained_intra=0 / bframes=3 / b_pyramid=2 / b_adapt=2 / b_bias=0 / direct=3 / weightb=1 / open_gop=0 / weightp=2 / keyint=250 / keyint_min=25 / scenecut=40 / intra_refresh=0 / rc_lookahead=50 / rc=2pass / mbtree=1 / bitrate=2500 / ratetol=1.0 / qcomp=0.60 / qpmin=0 / qpmax=69 / qpstep=4 / cplxblur=20.0 / qblur=0.5 / vbv_maxrate=31250 / vbv_bufsize=31250 / nal_hrd=none / filler=0 / ip_ratio=1.40 / aq=3:1.00
  26. Encoded date                             : UTC 2019-11-04 08:28:36
  27. Tagged date                              : UTC 2019-11-04 08:28:36
  28. Codec configuration box                  : avcC

  29. Audio
  30. ID                                       : 2
  31. Format                                   : AAC LC
  32. Format/Info                              : Advanced Audio Codec Low Complexity
  33. Codec ID                                 : mp4a-40-2
  34. Duration                                 : 1 h 15 min
  35. Bit rate mode                            : Constant
  36. Bit rate                                 : 224 kb/s
  37. Channel(s)                               : 6 channels
  38. Channel layout                           : C L R Ls Rs LFE
  39. Sampling rate                            : 48.0 kHz
  40. Frame rate                               : 46.875 FPS (1024 SPF)
  41. Compression mode                         : Lossy
  42. Stream size                              : 121 MiB (8%)
  43. Language                                 : English
  44. Default                                  : Yes
  45. Alternate group                          : 1
  46. Encoded date                             : UTC 2019-11-04 08:28:36
  47. Tagged date                              : UTC 2019-11-04 08:28:36
复制代码

心竞技/免费畅玩 Free.to.Play.2014.1080p.WEBRip.x264-RARBG 1.44GB-2.png 心竞技/免费畅玩 Free.to.Play.2014.1080p.WEBRip.x264-RARBG 1.44GB-3.png 心竞技/免费畅玩 Free.to.Play.2014.1080p.WEBRip.x264-RARBG 1.44GB-4.png







VIP会员免费任意下载本站所有资源!---点击开通
回复

使用道具 举报

懒得打字嘛,点击右侧快捷回复 【右侧内容,后台自定义】
您需要登录后才可以回帖 登录 | 立即注册

本版积分规则

QQ|Archiver|手机版|小黑屋| 中国高清网 |网站地图

GMT+8, 2019-11-22 05:18 , Processed in 0.215614 second(s), 37 queries .

Powered by HDchina X3.4

Copyright 2017-2019©HDchina.All right reserved

返回顶部 联系我们