查看: 106|回复: 0

[REMUX.HEVC] 再造战士/宇宙战士 Universal.Soldier.1992.2160p.BluRay.REMUX.HEVC.DTS-HD.MA.5.1-FGT 68.52GB

[复制链接]

 成长值: 3140

级别:资源管理组

注册时间
2017-10-20
最后登录
2019-11-11
听众
1
收听
0
主题
86761
蓝光币
61613 枚
贡献
11119 点
发表于 2019-11-4 19:15:11 | 显示全部楼层 |阅读模式
再造战士/宇宙战士 Universal.Soldier.1992.2160p.BluRay.REMUX.HEVC.DTS-HD.MA.5.1-FGT 68.52GB-1.png

译  名 再造战士 / 宇宙战士 / 魔鬼号令
片  名 Universal Soldier
年  代 1992
产  地 美国
类  别 剧情 / 行动 / 科幻
语  言 英语
上映日期 1992-07-10
IMDb评分  6.0/10 from 78583 users
IMDb链接  https://www.imdb.com/title/tt0105698
豆瓣评分 6.6/10 from 2917 users
豆瓣链接 https://movie.douban.com/subject/1298717/
片  长 102 分钟
导  演 罗兰·艾默里奇 Roland Emmerich
编  剧 Christopher Leitch / Richard Rothstein
主  演 杜夫·朗格 Dolph Lundgren
       尚格·云顿 Jean-Claude Van Damme
       艾利·沃克 Ally Walker


标  签 科幻 | 行动 | 美国 | 尚格·云顿 | 1992 | 美国电影 | 暴力 | 行动片

简  介  

  越战后,美国政府停止了一项绝密的科妹计划。科妹家们将越战中牺牲的兵士的尸身冰冻起来,植入电脑芯片,输入战争法式,讲他们革新成为新一代的战争机械人――“宇宙战士”,这些机械人没有感情和之前的记忆,只要冰冷的杀戮兵器。兵士卢克(尚格?云顿 Jean-Claude Van Damme 饰)和班长安德鲁(杜夫?朗格 Dolph Lundgren 饰)就是其中两员,他们被派往加入一场新的战争。战争中,两人的芯片忽然出错,令两人都规复了之前的记忆。
  卢克记起越战昔时正是安德鲁忽然性情大变将部属和俘虏都杀光,误闯美军基地的女记者罗伯斯(艾丽?沃克 Ally Walker 饰)意围得悉了美军这一奥秘。原本罗伯斯难逃一死,关键时辰卢克救走了她。因而,美军派出一切的宇宙战士起头追杀二人。
  1. Video #1
  2. ID                                       : 1
  3. Format                                   : HEVC
  4. Format/Info                              : High Efficiency Video Coding
  5. Format profile                           : Main High@L4@High
  6. HDR format                               : SMPTE ST 2086, HDR10 compatible
  7. Codec ID                                 : V_MPEGH/ISO/HEVC
  8. Duration                                 : 1 h 43 min
  9. Bit rate                                 : 64.0 Mb/s
  10. Width                                    : 3 840 pixels
  11. Height                                   : 2 160 pixels
  12. Display aspect ratio                     : 16:9
  13. Frame rate mode                          : Constant
  14. Frame rate                               : 24.000 FPS
  15. Color space                              : YUV
  16. Chroma subsampling                       : 4:2:0 (Type 2)
  17. Bit depth                                : 10 bits
  18. Bits/(Pixel*Frame)                       : 0.321
  19. Stream size                              : 46.2 GiB (67%)
  20. Title                                    : Universal.Soldier.1992.2160p.BluRay.REMUX.HEVC.DTS-HD.MA.5.1-FGT
  21. Language                                 : English
  22. Default                                  : Yes
  23. Forced                                   : No
  24. Color range                              : Limited
  25. Color primaries                          : BT.2020
  26. Transfer characteristics                 : PQ
  27. Matrix coefficients                      : BT.2020 non-constant
  28. Mastering display color primaries        : Display P3
  29. Mastering display luminance              : min: 0.0001 cd/m2, max: 1000 cd/m2
  30. Maximum Content Light Level              : 818 cd/m2
  31. Maximum Frame-Average Light Level        : 554 cd/m2

  32. Video #2
  33. ID                                       : 2
  34. Format                                   : HEVC
  35. Format/Info                              : High Efficiency Video Coding
  36. Format profile                           : Main High@L4@High
  37. HDR format                               : SMPTE ST 2086, HDR10 compatible
  38. Codec ID                                 : V_MPEGH/ISO/HEVC
  39. Duration                                 : 1 h 43 min
  40. Bit rate                                 : 16.0 Mb/s
  41. Width                                    : 1 920 pixels
  42. Height                                   : 1 080 pixels
  43. Display aspect ratio                     : 16:9
  44. Frame rate mode                          : Constant
  45. Frame rate                               : 24.000 FPS
  46. Color space                              : YUV
  47. Chroma subsampling                       : 4:2:0 (Type 2)
  48. Bit depth                                : 10 bits
  49. Bits/(Pixel*Frame)                       : 0.322
  50. Stream size                              : 11.6 GiB (17%)
  51. Title                                    : Universal.Soldier.1992.2160p.BluRay.REMUX.HEVC.DTS-HD.MA.5.1-FGT
  52. Default                                  : No
  53. Forced                                   : No
  54. Color range                              : Limited
  55. Color primaries                          : BT.2020
  56. Transfer characteristics                 : PQ
  57. Matrix coefficients                      : BT.2020 non-constant
  58. Mastering display color primaries        : Display P3
  59. Mastering display luminance              : min: 0.0001 cd/m2, max: 1000 cd/m2

  60. Audio #1
  61. ID                                       : 3
  62. Format                                   : DTS XLL
  63. Format/Info                              : Digital Theater Systems
  64. Commercial name                          : DTS-HD Master Audio
  65. Codec ID                                 : A_DTS
  66. Duration                                 : 1 h 43 min
  67. Bit rate mode                            : Variable
  68. Bit rate                                 : 4 287 kb/s
  69. Channel(s)                               : 6 channels
  70. Channel layout                           : C L R Ls Rs LFE
  71. Sampling rate                            : 48.0 kHz
  72. Frame rate                               : 93.750 FPS (512 SPF)
  73. Bit depth                                : 24 bits
  74. Compression mode                         : Lossless
  75. Stream size                              : 3.09 GiB (5%)
  76. Title                                    : Universal.Soldier.1992.2160p.BluRay.REMUX.HEVC.DTS-HD.MA.5.1-FGT
  77. Language                                 : English
  78. Default                                  : Yes
  79. Forced                                   : No

  80. Audio #2
  81. ID                                       : 4
  82. Format                                   : DTS XLL
  83. Format/Info                              : Digital Theater Systems
  84. Commercial name                          : DTS-HD Master Audio
  85. Codec ID                                 : A_DTS
  86. Duration                                 : 1 h 43 min
  87. Bit rate mode                            : Variable
  88. Bit rate                                 : 3 892 kb/s
  89. Channel(s)                               : 6 channels
  90. Channel layout                           : C L R Ls Rs LFE
  91. Sampling rate                            : 48.0 kHz
  92. Frame rate                               : 93.750 FPS (512 SPF)
  93. Bit depth                                : 24 bits
  94. Compression mode                         : Lossless
  95. Stream size                              : 2.81 GiB (4%)
  96. Title                                    : Universal.Soldier.1992.2160p.BluRay.REMUX.HEVC.DTS-HD.MA.5.1-FGT
  97. Language                                 : German
  98. Default                                  : No
  99. Forced                                   : No

  100. Audio #3
  101. ID                                       : 5
  102. Format                                   : DTS XLL
  103. Format/Info                              : Digital Theater Systems
  104. Commercial name                          : DTS-HD Master Audio
  105. Codec ID                                 : A_DTS
  106. Duration                                 : 1 h 43 min
  107. Bit rate mode                            : Variable
  108. Bit rate                                 : 3 524 kb/s
  109. Channel(s)                               : 6 channels
  110. Channel layout                           : C L R Ls Rs LFE
  111. Sampling rate                            : 48.0 kHz
  112. Frame rate                               : 93.750 FPS (512 SPF)
  113. Bit depth                                : 24 bits
  114. Compression mode                         : Lossless
  115. Stream size                              : 2.54 GiB (4%)
  116. Title                                    : Universal.Soldier.1992.2160p.BluRay.REMUX.HEVC.DTS-HD.MA.5.1-FGT
  117. Language                                 : French
  118. Default                                  : No
  119. Forced                                   : No

  120. Audio #4
  121. ID                                       : 6
  122. Format                                   : DTS XLL
  123. Format/Info                              : Digital Theater Systems
  124. Commercial name                          : DTS-HD Master Audio
  125. Codec ID                                 : A_DTS
  126. Duration                                 : 1 h 43 min
  127. Bit rate mode                            : Variable
  128. Bit rate                                 : 1 508 kb/s
  129. Channel(s)                               : 2 channels
  130. Channel layout                           : L R
  131. Sampling rate                            : 48.0 kHz
  132. Frame rate                               : 93.750 FPS (512 SPF)
  133. Bit depth                                : 24 bits
  134. Compression mode                         : Lossless
  135. Stream size                              : 1.09 GiB (2%)
  136. Title                                    : Universal.Soldier.1992.2160p.BluRay.REMUX.HEVC.DTS-HD.MA.5.1-FGT
  137. Language                                 : English
  138. Default                                  : No
  139. Forced                                   : No

  140. Audio #5
  141. ID                                       : 7
  142. Format                                   : DTS XLL
  143. Format/Info                              : Digital Theater Systems
  144. Commercial name                          : DTS-HD Master Audio
  145. Codec ID                                 : A_DTS
  146. Duration                                 : 1 h 43 min
  147. Bit rate mode                            : Variable
  148. Bit rate                                 : 1 616 kb/s
  149. Channel(s)                               : 2 channels
  150. Channel layout                           : L R
  151. Sampling rate                            : 48.0 kHz
  152. Frame rate                               : 93.750 FPS (512 SPF)
  153. Bit depth                                : 24 bits
  154. Compression mode                         : Lossless
  155. Stream size                              : 1.17 GiB (2%)
  156. Title                                    : Universal.Soldier.1992.2160p.BluRay.REMUX.HEVC.DTS-HD.MA.5.1-FGT
  157. Language                                 : English
  158. Default                                  : No
  159. Forced                                   : No

  160. Text #1
  161. ID                                       : 8
  162. Format                                   : UTF-8
  163. Codec ID                                 : S_TEXT/UTF8
  164. Codec ID/Info                            : UTF-8 Plain Text
  165. Duration                                 : 1 h 36 min
  166. Bit rate                                 : 47 b/s
  167. Count of elements                        : 1050
  168. Stream size                              : 33.3 KiB (0%)
  169. Title                                    : English-SRT
  170. Language                                 : English
  171. Default                                  : Yes
  172. Forced                                   : No

  173. Text #2
  174. ID                                       : 9
  175. Format                                   : UTF-8
  176. Codec ID                                 : S_TEXT/UTF8
  177. Codec ID/Info                            : UTF-8 Plain Text
  178. Duration                                 : 1 h 37 min
  179. Bit rate                                 : 57 b/s
  180. Count of elements                        : 1246
  181. Stream size                              : 40.7 KiB (0%)
  182. Title                                    : English-SDH-SRT
  183. Language                                 : English
  184. Default                                  : No
  185. Forced                                   : No

  186. Text #3
  187. ID                                       : 10
  188. Format                                   : PGS
  189. Muxing mode                              : zlib
  190. Codec ID                                 : S_HDMV/PGS
  191. Codec ID/Info                            : Picture based subtitle format used on BDs/HD-DVDs
  192. Duration                                 : 1 h 41 min
  193. Bit rate                                 : 19.3 kb/s
  194. Count of elements                        : 1660
  195. Stream size                              : 14.0 MiB (0%)
  196. Title                                    : German-PGS
  197. Language                                 : German
  198. Default                                  : No
  199. Forced                                   : No

  200. Text #4
  201. ID                                       : 11
  202. Format                                   : PGS
  203. Muxing mode                              : zlib
  204. Codec ID                                 : S_HDMV/PGS
  205. Codec ID/Info                            : Picture based subtitle format used on BDs/HD-DVDs
  206. Duration                                 : 1 h 37 min
  207. Bit rate                                 : 27.9 kb/s
  208. Count of elements                        : 2492
  209. Stream size                              : 19.4 MiB (0%)
  210. Title                                    : English-PGS
  211. Language                                 : English
  212. Default                                  : No
  213. Forced                                   : No

  214. Text #5
  215. ID                                       : 12
  216. Format                                   : PGS
  217. Muxing mode                              : zlib
  218. Codec ID                                 : S_HDMV/PGS
  219. Codec ID/Info                            : Picture based subtitle format used on BDs/HD-DVDs
  220. Duration                                 : 1 h 41 min
  221. Bit rate                                 : 15.2 kb/s
  222. Count of elements                        : 1888
  223. Stream size                              : 11.1 MiB (0%)
  224. Title                                    : French-PGS
  225. Language                                 : French
  226. Default                                  : No
  227. Forced                                   : No

  228. Text #6
  229. ID                                       : 13
  230. Format                                   : PGS
  231. Muxing mode                              : zlib
  232. Codec ID                                 : S_HDMV/PGS
  233. Codec ID/Info                            : Picture based subtitle format used on BDs/HD-DVDs
  234. Duration                                 : 1 h 38 min
  235. Bit rate                                 : 27.1 kb/s
  236. Count of elements                        : 2184
  237. Stream size                              : 19.2 MiB (0%)
  238. Title                                    : German-PGS
  239. Language                                 : German
  240. Default                                  : No
  241. Forced                                   : No

  242. Text #7
  243. ID                                       : 14
  244. Format                                   : PGS
  245. Muxing mode                              : zlib
  246. Codec ID                                 : S_HDMV/PGS
  247. Codec ID/Info                            : Picture based subtitle format used on BDs/HD-DVDs
  248. Duration                                 : 1 h 38 min
  249. Bit rate                                 : 27.2 kb/s
  250. Count of elements                        : 2186
  251. Stream size                              : 19.2 MiB (0%)
  252. Title                                    : French-PGS
  253. Language                                 : French
  254. Default                                  : No
  255. Forced                                   : No

  256. Text #8
  257. ID                                       : 15
  258. Format                                   : PGS
  259. Muxing mode                              : zlib
  260. Codec ID                                 : S_HDMV/PGS
  261. Codec ID/Info                            : Picture based subtitle format used on BDs/HD-DVDs
  262. Duration                                 : 1 h 36 min
  263. Bit rate                                 : 20.6 kb/s
  264. Count of elements                        : 1288
  265. Stream size                              : 14.2 MiB (0%)
  266. Title                                    : German-PGS
  267. Language                                 : German
  268. Default                                  : No
  269. Forced                                   : No

  270. Text #9
  271. ID                                       : 16
  272. Format                                   : PGS
  273. Muxing mode                              : zlib
  274. Codec ID                                 : S_HDMV/PGS
  275. Codec ID/Info                            : Picture based subtitle format used on BDs/HD-DVDs
  276. Duration                                 : 1 h 13 min
  277. Bit rate                                 : 154 b/s
  278. Count of elements                        : 10
  279. Stream size                              : 83.3 KiB (0%)
  280. Title                                    : German-FORCED-PGS
  281. Language                                 : German
  282. Default                                  : No
  283. Forced                                   : No

  284. Text #10
  285. ID                                       : 17
  286. Format                                   : PGS
  287. Muxing mode                              : zlib
  288. Codec ID                                 : S_HDMV/PGS
  289. Codec ID/Info                            : Picture based subtitle format used on BDs/HD-DVDs
  290. Duration                                 : 1 h 13 min
  291. Bit rate                                 : 142 b/s
  292. Count of elements                        : 10
  293. Stream size                              : 77.0 KiB (0%)
  294. Title                                    : French-FORCED-PGS
  295. Language                                 : French
  296. Default                                  : No
  297. Forced                                   : No

  298. Menu
  299. 00:00:00.000                             : en:Chapter 01
  300. 00:10:27.458                             : en:Chapter 02
  301. 00:20:51.791                             : en:Chapter 03
  302. 00:31:24.750                             : en:Chapter 04
  303. 00:42:41.333                             : en:Chapter 05
  304. 00:53:13.625                             : en:Chapter 06
  305. 01:04:07.500                             : en:Chapter 07
  306. 01:14:22.666                             : en:Chapter 08
  307. 01:21:52.958                             : en:Chapter 09
  308. 01:31:32.875                             : en:Chapter 10
复制代码

再造战士/宇宙战士 Universal.Soldier.1992.2160p.BluRay.REMUX.HEVC.DTS-HD.MA.5.1-FGT 68.52GB-2.png 再造战士/宇宙战士 Universal.Soldier.1992.2160p.BluRay.REMUX.HEVC.DTS-HD.MA.5.1-FGT 68.52GB-3.png 再造战士/宇宙战士 Universal.Soldier.1992.2160p.BluRay.REMUX.HEVC.DTS-HD.MA.5.1-FGT 68.52GB-4.png







本帖隐藏的下载地址需要VIP会员才可阅读,您需要升级才可阅读,点击这里升级VIP
VIP会员免费任意下载本站所有资源!---点击开通
回复

使用道具 举报

懒得打字嘛,点击右侧快捷回复 【右侧内容,后台自定义】
您需要登录后才可以回帖 登录 | 立即注册

本版积分规则

QQ|Archiver|手机版|小黑屋| 中国高清网 |网站地图 

GMT+8, 2019-11-13 17:04 , Processed in 0.282522 second(s), 37 queries .

Powered by HDchina X3.4

Copyright 2017-2019©HDchina.All right reserved

返回顶部 联系我们