查看: 42|回复: 2

[剧情片] 薇塔与弗吉尼亚/薇塔和维吉尼亚 Vita.and.Virginia.2018.720p.BluRay.X264-AMIABLE 4.37GB

[复制链接]

 成长值: 3140

级别:资源管理组

注册时间
2017-10-20
最后登录
2019-11-11
听众
1
收听
0
主题
86761
蓝光币
61613 枚
贡献
11119 点
发表于 2019-11-4 17:16:27 | 显示全部楼层 |阅读模式
薇塔与弗吉尼亚/薇塔和维吉尼亚 Vita.and.Virginia.2018.720p.BluRay.X264-AMIABLE 4.37GB-1.png , c$ `; t0 Q: ?7 H
0 E3 x' ]  {" E
译  名 薇塔与弗吉尼亚 / 薇塔和维吉尼亚3 ~- L, J3 K3 J1 w% x; v1 d
片  名 Vita and Virginia
# J: I) ^  _! A% ~0 `年  代 2018: o! ~6 c$ R0 S, C( X
产  地 英国0 d( o" b" f; Z5 R" Q- Z
类  别 剧情 / 恋爱 / 同性 / 列传+ Z. t- r3 r3 ^; h/ q+ H4 I3 _0 m7 g
语  言 英语
+ y% @/ P$ c) W# M& f" E: x( o" g上映日期 2018-09-11(多伦多电影节) / 2019-08-23(美国)
- H! L; R5 h" G3 |6 G% _2 Z( KIMDb评分  5.4/10 from 403 users
2 ]" W& }2 _8 O: g, f& i/ qIMDb链接  http://www.imdb.com/title/tt5859882
& W' O/ p% Q' ^- Q* Z4 I. h豆瓣评分 6.8/10 from 71 users( B! }0 H6 x2 ?1 w
豆瓣链接 https://movie.douban.com/subject/26322767/
$ S6 c& w. y9 e0 Q, A  Z: p" J片  长 110分钟6 |& y" i( @0 [) ?% ^
导  演 钱亚·波顿 Chanya Button
3 u( w% y7 `4 {1 |& J* o编  剧 艾琳·阿特金斯 Eileen Atkins / 弗吉尼亚·伍尔芙 Virginia Woolf / Vita Sackville-West
' P' J" f6 _; ^4 E; T& z7 m主  演 杰玛·阿特登 Gemma Arterton8 j$ i: E  c& J, ~  y' g9 v
       伊丽莎白·德比茨基 Elizabeth Debicki1 h/ B& r: ^& [* M  Q3 V/ }
       伊莎贝拉·罗西里尼 Isabella Rossellini  i1 D- W" s9 B9 V6 d+ E
       鲁伯特·彭利-琼斯 Rupert Penry-Jones
3 O# X& r* _$ E0 F; N2 `9 G       彼得·费迪南多 Peter Ferdinando) K6 k: e) U: f# `7 S2 o6 |4 J% o

1 A/ i% d4 p! m( _1 B
7 m% W1 {: p( I0 J标  签 英国 | 列传 | LGBT | VirginiaWoolf | 英国电影 | 同性 | Les | 恋爱/ Q7 e4 t; b/ M/ q

& y% l# _# F4 N) G: R简  介  
; U; s( o6 s. c* \# m! o! y  s8 y& Q6 B" r+ n, e' i- t3 [
  影片布景设定在20年月的伦敦,剧情将会聚焦伍尔芙与韦斯特之间的情事:弗吉尼亚·史蒂芬1912年嫁给伦纳德·伍尔夫,接着碰见了上流社会人士兼作家薇塔·萨克维尔·韦斯特——哈罗德·尼科尔森的妻子。自1922始,她们开启了一段长达十年的爱情,并保持着性关系,互通了很多情书和日志。在她们的爱情终结以后,两人仍连结着杰出的朋友关系,直到1941年伍尔芙归天。" s$ H, H/ q, Y, t+ \! j
  这将是Chanya Button自2015年《Burn Burn Burn》以后执导的第二部剧情长片,艾琳·阿特金斯编写剧本,按照她出演的同名舞台剧(1993年初次在伦敦上演,1994年登陆百老汇)改编,还会基于伍尔芙和韦斯特之间的情书停止创作。伊娃·格林和安德丽亚·瑞斯波罗格此前曾打仗过伍尔芙这个脚色,后相继退出。导演称这是一部“新颖刺激,布满缔造力、豪情与性欲”的影片。其他卡司包括伊莎贝拉·罗西里尼、鲁伯特·彭利·琼斯、彼得·费迪南多,9月爱尔兰开拍。
' F% s" G- i, k
  1. Video
    1 o7 I7 M  D3 l) A; u
  2. ID                                       : 1
    . d$ o( R0 e7 M; U
  3. Format                                   : AVC* M$ J9 U9 c+ z) u& T
  4. Format/Info                              : Advanced Video Codec
    8 n/ e2 {+ r: l
  5. Format profile                           : High@L4: E# u( G: ^3 q
  6. Format settings                          : CABAC / 5 Ref Frames
    6 R: S& ~+ d7 S5 l
  7. Format settings, CABAC                   : Yes( A* P* p3 j+ u
  8. Format settings, Reference frames        : 5 frames, ~0 B, f7 u# U! |9 r8 a" m( |5 p
  9. Codec ID                                 : V_MPEG4/ISO/AVC
    & _6 \( Z4 S0 z7 ]
  10. Duration                                 : 1 h 49 min2 q$ C. @! P6 I3 F* ~" Y* I% s% G
  11. Bit rate                                 : 4 178 kb/s) p) c: W/ n# ~8 v& T1 @4 r
  12. Width                                    : 1 280 pixels$ z; L2 q6 G2 J+ R# Q6 g
  13. Height                                   : 688 pixels6 b9 U/ d  P# F! ]8 y. G
  14. Display aspect ratio                     : 1.85:1* q1 r" m4 o: @( F7 j, |" E
  15. Frame rate mode                          : Constant+ A5 D3 j! V4 m6 K. H  g% c
  16. Frame rate                               : 24.000 FPS
    7 ~/ R4 `# o; ^4 J% _
  17. Color space                              : YUV$ E; E9 L% ^- Y
  18. Chroma subsampling                       : 4:2:0
    5 `* j# s/ x. b# P, [3 i7 a
  19. Bit depth                                : 8 bits: g6 }; i) p* c- O' f, Y; d1 P
  20. Scan type                                : Progressive
    4 F: c4 t  O. x$ c; x
  21. Bits/(Pixel*Frame)                       : 0.198, i$ R5 d; h8 V& s" X+ j
  22. Stream size                              : 3.12 GiB (71%)7 e6 E  j6 F+ l8 Q: `
  23. Writing library                          : x264 core 158 r2984 3759fcb, r9 v9 O7 v% r  m
  24. Encoding settings                        : cabac=1 / ref=5 / deblock=1:-3:-3 / analyse=0x3:0x113 / me=umh / subme=8 / psy=1 / psy_rd=1.00:0.00 / mixed_ref=1 / me_range=24 / chroma_me=1 / trellis=2 / 8x8dct=1 / cqm=0 / deadzone=21,11 / fast_pskip=1 / chroma_qp_offset=-2 / threads=21 / lookahead_threads=3 / sliced_threads=0 / nr=0 / decimate=1 / interlaced=0 / bluray_compat=0 / constrained_intra=0 / bframes=3 / b_pyramid=2 / b_adapt=2 / b_bias=0 / direct=3 / weightb=1 / open_gop=0 / weightp=2 / keyint=240 / keyint_min=24 / scenecut=40 / intra_refresh=0 / rc_lookahead=50 / rc=2pass / mbtree=1 / bitrate=4178 / ratetol=1.0 / qcomp=0.60 / qpmin=0 / qpmax=69 / qpstep=4 / cplxblur=20.0 / qblur=0.5 / ip_ratio=1.40 / aq=3:0.808 w2 q! H- [: N% j) R7 k
  25. Default                                  : Yes' _7 ?. G& x' o( \7 J
  26. Forced                                   : No* f8 \2 V2 N# r  e. a; ~
  27. Statistics Tags Issue                    : no_variable_data 1970-01-01 00:00:00 / no_variable_data 2010-02-22 21:41:29
    - ^9 @, s, u' i9 E/ {  M7 J' ^) c
  28. FromStats_BitRate                        : 4176970
    - Z0 p- Y7 D7 i: v: p8 n
  29. FromStats_Duration                       : 01:49:58.042000000
    # q% _9 d  {9 ]* [3 |- S
  30. FromStats_FrameCount                     : 158353; g5 Z% d" Q/ R2 V1 H
  31. FromStats_StreamSize                     : 3444978456
    3 b8 a& e( b7 W. }

  32. . u. s, k  v! `: v/ ?( E
  33. Audio! N& J/ `9 }) U% q8 S9 A
  34. ID                                       : 2
    # |" ~% ~5 G* m, f
  35. Format                                   : DTS
    / ]( Y; R3 \9 c$ i$ ?
  36. Format/Info                              : Digital Theater Systems
    3 l" L# k  e  ]! Y5 R
  37. Codec ID                                 : A_DTS8 R( s1 @' |5 F4 W- o3 x
  38. Duration                                 : 1 h 49 min
    ; n' o; N% i/ q8 J# F
  39. Bit rate mode                            : Constant# z8 h4 U/ `( t2 T; @- A' p- E
  40. Bit rate                                 : 1 509 kb/s: a, ^. O( _6 p. y" f( c
  41. Channel(s)                               : 6 channels$ }, e% v( Q  _4 r
  42. Channel layout                           : C L R Ls Rs LFE
    : |6 ]7 a8 d* ?8 ^* n3 M
  43. Sampling rate                            : 48.0 kHz: Q' e; P: ~3 [' O" |: G1 @8 m
  44. Frame rate                               : 93.750 FPS (512 SPF)
    . b$ _1 @9 n6 C% U2 K* Q, l) R
  45. Bit depth                                : 24 bits
    ) u1 w& d- U+ Q9 r& k) B
  46. Compression mode                         : Lossy
    6 D8 K3 y2 J) Z$ s% J
  47. Stream size                              : 1.16 GiB (27%)3 X: l+ D8 `! W7 a6 e, C
  48. Language                                 : English" ]+ r/ j6 M2 _
  49. Default                                  : Yes
    : @, J# P6 f. F6 K8 v, ^
  50. Forced                                   : No! ]( R; f# K: A! I. A8 w% w
  51. Statistics Tags Issue                    : no_variable_data 1970-01-01 00:00:00 / no_variable_data 2010-02-22 21:41:291 g. E; v* f1 g- N
  52. FromStats_BitRate                        : 1509000
      G) ?" O% C# T
  53. FromStats_Duration                       : 01:49:57.024000000
    % m* D: a5 y$ J3 v
  54. FromStats_FrameCount                     : 6184719 E( t7 l/ F6 j; G- ?$ g" `
  55. FromStats_StreamSize                     : 1244363652
    , Z* X: {5 {' A7 N

  56. 9 R( d$ E5 c+ p2 b) }$ s
  57. Menu
    " A. h1 H# |6 o  K3 P2 M  T7 Y
  58. 00:00:00.000                             : en:Chapter 01+ R9 f" S/ x- B7 }/ \' ?
  59. 00:06:55.333                             : en:Chapter 02
    . u4 A' Z- [& D6 O
  60. 00:13:37.333                             : en:Chapter 033 G, _/ A7 K; S$ y, O
  61. 00:22:19.875                             : en:Chapter 04
    ( q% Z! r: P6 {# A* L% X
  62. 00:34:17.292                             : en:Chapter 05
    ; K8 X1 C$ m  I/ g& f8 z
  63. 00:48:27.250                             : en:Chapter 06
    & n2 q1 R4 |% q( E* a: `+ Y! |
  64. 01:00:35.083                             : en:Chapter 07
    ' `3 x+ S0 L2 Y- D4 A$ B8 [) B
  65. 01:05:07.292                             : en:Chapter 08
    ; H5 W5 `- ?1 \
  66. 01:13:20.875                             : en:Chapter 09
    3 d# T8 g* X1 b* h5 @4 G
  67. 01:29:31.167                             : en:Chapter 10
    0 {4 D0 |( ~& c4 [
  68. 01:36:08.042                             : en:Chapter 11% `* n. X1 I: @/ s1 l: [4 k7 V
  69. 01:44:28.292                             : en:Chapter 12
复制代码

8 j1 I5 X4 ^" G5 r 薇塔与弗吉尼亚/薇塔和维吉尼亚 Vita.and.Virginia.2018.720p.BluRay.X264-AMIABLE 4.37GB-2.png
- ?% u" `3 n. s6 B/ g* Z) U
. @/ Q- e! k$ @2 }8 f. d. D& G2 U: e4 M' [1 \- w8 c
' ?; L4 |8 V$ c/ ~" }# a

  v& Z$ Z6 {$ g* ^
. t" y! P; O9 @6 `& I* ^' ?
% J/ L2 N2 _. n4 y* G4 T3 J& ~$ I0 y0 u: ^, D5 K
VIP会员免费任意下载本站所有资源!---点击开通
回复

使用道具 举报

级别:普通观众 Lv.2

注册时间
2019-10-27
最后登录
2019-11-11
听众
0
收听
0
主题
0
蓝光币
20 枚
贡献
0 点
发表于 2019-11-4 22:51:42 | 显示全部楼层
楼主发贴辛苦了,谢谢楼主分享!我觉得中国高清电影网是注册对了!
VIP会员免费任意下载本站所有资源!---点击开通
回复

使用道具 举报

级别:一举成名 Lv.7

注册时间
2019-4-24
最后登录
2019-11-13
听众
13
收听
0
主题
0
蓝光币
194 枚
贡献
0 点
发表于 6 天前 | 显示全部楼层
楼主发贴辛苦了,谢谢楼主分享!我觉得中国高清电影网是注册对了!
VIP会员免费任意下载本站所有资源!---点击开通
回复

使用道具 举报

懒得打字嘛,点击右侧快捷回复 【右侧内容,后台自定义】
您需要登录后才可以回帖 登录 | 立即注册

本版积分规则

QQ|Archiver|手机版|小黑屋| 中国高清网 |网站地图 

GMT+8, 2019-11-13 17:05 , Processed in 0.224738 second(s), 37 queries .

Powered by HDchina X3.4

Copyright 2017-2019©HDchina.All right reserved

返回顶部 联系我们