查看: 89|回复: 2

[剧情片] 薇塔与弗吉尼亚/薇塔和维吉尼亚 Vita.and.Virginia.2018.720p.BluRay.X264-AMIABLE 4.37GB

[复制链接]

 成长值: 4180

级别:资源管理组

注册时间
2017-10-20
最后登录
2020-2-25
听众
1
收听
0
主题
92798
蓝光币
104083 枚
贡献
17160 点
发表于 2019-11-4 17:16:27 | 显示全部楼层 |阅读模式
薇塔与弗吉尼亚/薇塔和维吉尼亚 Vita.and.Virginia.2018.720p.BluRay.X264-AMIABLE 4.37GB-1.png   R: Q1 A6 X! Y; {. k& p2 m

$ N9 h4 Q! H( R8 t5 {$ R译  名 薇塔与弗吉尼亚 / 薇塔和维吉尼亚
: K) V, _0 L# k- o6 f; _$ d4 B$ _* i  k片  名 Vita and Virginia* V& D9 K' Y; U4 f/ @
年  代 2018: h' q0 K0 ~. k5 Q- {
产  地 英国9 G) J7 x8 {1 j4 N5 y& x
类  别 剧情 / 恋爱 / 同性 / 列传
5 P5 ?+ B# N- ^语  言 英语
' d1 a7 i; x" v上映日期 2018-09-11(多伦多电影节) / 2019-08-23(美国)7 E: U5 b  Z3 b* t
IMDb评分  5.4/10 from 403 users
2 A. |3 l! f5 s* O8 u" x# c  G' CIMDb链接  http://www.imdb.com/title/tt58598827 P5 ]4 d  W1 x% z- H7 B6 \
豆瓣评分 6.8/10 from 71 users
* j; t, U3 B: r: r& y: g豆瓣链接 https://movie.douban.com/subject/26322767/# ]* B& }( }6 i. k0 [6 K" ]$ O4 N
片  长 110分钟1 B! h1 q$ f0 b+ w
导  演 钱亚·波顿 Chanya Button9 \, z+ _& ]5 o6 ?. R. ]0 [
编  剧 艾琳·阿特金斯 Eileen Atkins / 弗吉尼亚·伍尔芙 Virginia Woolf / Vita Sackville-West
4 d& C7 B: B$ E0 K主  演 杰玛·阿特登 Gemma Arterton8 C- g9 H5 b# U& E) U
       伊丽莎白·德比茨基 Elizabeth Debicki. A& D) G9 F4 @3 z& X
       伊莎贝拉·罗西里尼 Isabella Rossellini
4 d& D" H# W1 r& W" E       鲁伯特·彭利-琼斯 Rupert Penry-Jones
9 D; l0 ~/ t% H       彼得·费迪南多 Peter Ferdinando2 l) \; p) P2 K$ Q0 Y. ^( `

1 T: F) O5 W" s* z: D% O9 u
5 E' }  a5 f" ?2 U6 z7 l% A标  签 英国 | 列传 | LGBT | VirginiaWoolf | 英国电影 | 同性 | Les | 恋爱6 S$ X* N& T1 }0 ~

, i0 C. e0 f' b8 Z7 O简  介  0 C- I' ~" c- X8 t( M2 @

! W- c; R% Z, x8 Z9 j  影片布景设定在20年月的伦敦,剧情将会聚焦伍尔芙与韦斯特之间的情事:弗吉尼亚·史蒂芬1912年嫁给伦纳德·伍尔夫,接着碰见了上流社会人士兼作家薇塔·萨克维尔·韦斯特——哈罗德·尼科尔森的妻子。自1922始,她们开启了一段长达十年的爱情,并保持着性关系,互通了很多情书和日志。在她们的爱情终结以后,两人仍连结着杰出的朋友关系,直到1941年伍尔芙归天。8 H* D7 |& r/ b/ R
  这将是Chanya Button自2015年《Burn Burn Burn》以后执导的第二部剧情长片,艾琳·阿特金斯编写剧本,按照她出演的同名舞台剧(1993年初次在伦敦上演,1994年登陆百老汇)改编,还会基于伍尔芙和韦斯特之间的情书停止创作。伊娃·格林和安德丽亚·瑞斯波罗格此前曾打仗过伍尔芙这个脚色,后相继退出。导演称这是一部“新颖刺激,布满缔造力、豪情与性欲”的影片。其他卡司包括伊莎贝拉·罗西里尼、鲁伯特·彭利·琼斯、彼得·费迪南多,9月爱尔兰开拍。
0 w4 J& ~& n+ r0 U
  1. Video
    9 u4 o) S# K' r0 c
  2. ID                                       : 10 H2 V; u+ d( s2 g
  3. Format                                   : AVC
    4 ?* O) Y( q0 t2 z1 B
  4. Format/Info                              : Advanced Video Codec# K8 W) w0 |3 y9 K1 u$ B9 p/ m- j
  5. Format profile                           : High@L4
    , d; |& v- J) b1 Z% O2 R4 i  d* h. @
  6. Format settings                          : CABAC / 5 Ref Frames
    8 ?$ F1 X7 |1 V, ]- j# [
  7. Format settings, CABAC                   : Yes1 E& @* t) L) r% ^6 K
  8. Format settings, Reference frames        : 5 frames
    . |$ d: p8 R( _+ T) ?. C
  9. Codec ID                                 : V_MPEG4/ISO/AVC
    3 Q1 |- @6 L4 `3 I
  10. Duration                                 : 1 h 49 min
    7 v! z' |8 ?4 t
  11. Bit rate                                 : 4 178 kb/s" }2 E8 \: _8 \$ i/ A5 V
  12. Width                                    : 1 280 pixels
    / t- d4 h4 q' R0 u
  13. Height                                   : 688 pixels
    - b' a+ u) ?# ?6 E
  14. Display aspect ratio                     : 1.85:1
    0 H# T; o. b0 s) W
  15. Frame rate mode                          : Constant% J. i0 Q! y) _& T. K7 U
  16. Frame rate                               : 24.000 FPS
    3 ?1 H% X" P# B) v" T
  17. Color space                              : YUV
    & n+ J& G6 [) W* `) U3 B6 b: C' W
  18. Chroma subsampling                       : 4:2:0- }  D" ?/ r2 l+ E
  19. Bit depth                                : 8 bits
    $ g6 M2 ?( ^4 u
  20. Scan type                                : Progressive
    . Z/ y# H4 ], ?; `4 ]* t3 a
  21. Bits/(Pixel*Frame)                       : 0.198
    ( a( d5 i( z" h# X6 _% b, U7 R& g
  22. Stream size                              : 3.12 GiB (71%)5 g+ p/ s2 _2 t1 L9 u* I' D
  23. Writing library                          : x264 core 158 r2984 3759fcb' z) W# H/ G# N, ]% z
  24. Encoding settings                        : cabac=1 / ref=5 / deblock=1:-3:-3 / analyse=0x3:0x113 / me=umh / subme=8 / psy=1 / psy_rd=1.00:0.00 / mixed_ref=1 / me_range=24 / chroma_me=1 / trellis=2 / 8x8dct=1 / cqm=0 / deadzone=21,11 / fast_pskip=1 / chroma_qp_offset=-2 / threads=21 / lookahead_threads=3 / sliced_threads=0 / nr=0 / decimate=1 / interlaced=0 / bluray_compat=0 / constrained_intra=0 / bframes=3 / b_pyramid=2 / b_adapt=2 / b_bias=0 / direct=3 / weightb=1 / open_gop=0 / weightp=2 / keyint=240 / keyint_min=24 / scenecut=40 / intra_refresh=0 / rc_lookahead=50 / rc=2pass / mbtree=1 / bitrate=4178 / ratetol=1.0 / qcomp=0.60 / qpmin=0 / qpmax=69 / qpstep=4 / cplxblur=20.0 / qblur=0.5 / ip_ratio=1.40 / aq=3:0.80
    # [$ t9 o. w$ b4 `7 |6 Z% L) O
  25. Default                                  : Yes- t2 J  m6 v- w" @1 s
  26. Forced                                   : No' w4 @4 [; |$ j( ?& s4 g
  27. Statistics Tags Issue                    : no_variable_data 1970-01-01 00:00:00 / no_variable_data 2010-02-22 21:41:296 v6 M7 [0 F0 h5 B( T
  28. FromStats_BitRate                        : 4176970
    # [7 t6 n! {* y. L
  29. FromStats_Duration                       : 01:49:58.042000000# S+ f  a: n, C; n( s
  30. FromStats_FrameCount                     : 158353: }& o& _4 S& Y' [/ n) B
  31. FromStats_StreamSize                     : 3444978456
    6 `1 ~, y* R1 d) {
  32. , ?! y! y& E' a( G
  33. Audio
    " x2 I6 U  Y7 N  f, j( u
  34. ID                                       : 2
    . t$ E* y3 g, d2 K& ?2 i
  35. Format                                   : DTS
    * c6 ^1 p! x( `
  36. Format/Info                              : Digital Theater Systems# v5 z. N$ j! E
  37. Codec ID                                 : A_DTS
    2 L$ B5 h6 {2 X, U! B: X
  38. Duration                                 : 1 h 49 min! {6 U3 ^% L& T  t7 X5 t
  39. Bit rate mode                            : Constant
    9 q" t4 Z8 J% t: m- F
  40. Bit rate                                 : 1 509 kb/s
    # Z& y' B+ d' n: I5 M/ c( j* S
  41. Channel(s)                               : 6 channels8 \- Q! X' [* d. s% L
  42. Channel layout                           : C L R Ls Rs LFE% Y; ]/ v  [* \" o" R8 ^
  43. Sampling rate                            : 48.0 kHz
    9 Q; u# z4 |! o' w# o) [5 ~  e0 v
  44. Frame rate                               : 93.750 FPS (512 SPF)$ w; b6 y2 s8 _& l
  45. Bit depth                                : 24 bits6 U- \" ?! O! L* h+ r
  46. Compression mode                         : Lossy
    7 R+ h- C" ?, O+ l/ {3 g1 q  O
  47. Stream size                              : 1.16 GiB (27%)* c: j) S7 X. d% l* i$ @
  48. Language                                 : English# i% E9 I2 o; @7 R( U
  49. Default                                  : Yes
    # d- ?7 M: [/ \' K: o- l1 f( \
  50. Forced                                   : No
    ! N7 O6 D! U- {5 w% |
  51. Statistics Tags Issue                    : no_variable_data 1970-01-01 00:00:00 / no_variable_data 2010-02-22 21:41:29
    ( \: y% r/ R6 N9 |' a
  52. FromStats_BitRate                        : 15090001 l: k" M- o/ H% ^% `6 x: `, F* Y
  53. FromStats_Duration                       : 01:49:57.024000000
    3 ]7 K2 `" o! ^( n. i. @' I" `
  54. FromStats_FrameCount                     : 6184716 [5 h! X" i4 W/ ^+ v3 S
  55. FromStats_StreamSize                     : 1244363652
    6 ]3 k. k- d3 X) d/ ?7 p+ q

  56. ! V& w' Y: H/ F! f
  57. Menu
    * T; X& _# l2 w/ ^! D+ R
  58. 00:00:00.000                             : en:Chapter 01
    6 a9 ?, r9 N5 K/ ^. Q! H
  59. 00:06:55.333                             : en:Chapter 02
    , c) x  B2 i. X( ^
  60. 00:13:37.333                             : en:Chapter 036 t6 f+ P5 {4 r) {9 [
  61. 00:22:19.875                             : en:Chapter 04
    % R$ a0 \* U# ?, G: r' F( O
  62. 00:34:17.292                             : en:Chapter 05# Z" |# a: R: E& D# D% J# b$ W
  63. 00:48:27.250                             : en:Chapter 06$ q; e, P6 D3 H5 L3 T
  64. 01:00:35.083                             : en:Chapter 07
    - ?9 w5 a% U7 j% ?+ s! Y: S/ M# `
  65. 01:05:07.292                             : en:Chapter 08
      e% t1 Y7 P# P2 o& ~& {( u4 G- O
  66. 01:13:20.875                             : en:Chapter 09% z( N3 H; k9 S$ z) T. g( K, f: n% O
  67. 01:29:31.167                             : en:Chapter 10
    $ d+ H! W9 b+ F7 R% ]/ [
  68. 01:36:08.042                             : en:Chapter 11! P& Q0 |  r; s, G! K) q* j
  69. 01:44:28.292                             : en:Chapter 12
复制代码

7 A: v7 O* [: E 薇塔与弗吉尼亚/薇塔和维吉尼亚 Vita.and.Virginia.2018.720p.BluRay.X264-AMIABLE 4.37GB-2.png & }% F4 b1 Q9 o: R% [) H
# M4 {) X6 z! v4 O' m9 o. O
; I( X0 z/ c: g0 r& z
  C$ j7 v. U1 ?; H4 n
7 M. Z7 }9 l  V2 K
1 c8 a; ]$ h# b3 R

7 k8 |* h8 X7 H! z5 h  Z) O
/ V: E% j+ n& \0 `
回复

使用道具 举报

级别:专业龙套 Lv.4

注册时间
2019-10-27
最后登录
2020-2-25
听众
1
收听
0
主题
0
蓝光币
253 枚
贡献
0 点
发表于 2019-11-4 22:51:42 | 显示全部楼层
楼主发贴辛苦了,谢谢楼主分享!我觉得中国高清电影网是注册对了!
回复

使用道具 举报

级别:一线明星 Lv.8

注册时间
2019-4-24
最后登录
2020-2-25
听众
14
收听
0
主题
0
蓝光币
343 枚
贡献
0 点
发表于 2019-11-7 08:21:07 | 显示全部楼层
楼主发贴辛苦了,谢谢楼主分享!我觉得中国高清电影网是注册对了!
回复

使用道具 举报

懒得打字嘛,点击右侧快捷回复 【右侧内容,后台自定义】
您需要登录后才可以回帖 登录 | 立即注册

本版积分规则

Archiver|手机版|小黑屋| 中国高清网 |网站地图

GMT+8, 2020-2-25 22:38 , Processed in 0.161324 second(s), 37 queries .

Powered by HDchina X3.4

Copyright 2017-2019©HDchina.All right reserved

返回顶部 联系我们