查看: 54|回复: 2

[恐怖片] 蜡制面具 The.Wax.Mask.1997.720p.BluRay.x264-CREEPSHOW 6.56GB

[复制链接]

 成长值: 3230

级别:资源管理组

注册时间
2017-10-20
最后登录
2019-11-21
听众
1
收听
0
主题
87390
蓝光币
63616 枚
贡献
11749 点
发表于 2019-11-4 17:04:14 | 显示全部楼层 |阅读模式
蜡制面具 The.Wax.Mask.1997.720p.BluRay.x264-CREEPSHOW 6.56GB-1.png
: y4 T1 e9 K# o- z8 U9 \
" M, N! a3 {* x: t! e  \译  名 蜡制面具 / M.D.C. - Maschera di cera# H: c, h3 M  r1 Z5 C1 a' ~- B9 ], p
片  名 Wax Mask/ G# \6 {, n9 v, }9 j9 r
年  代 1997- G8 _. `( g; p
产  地 意大利 / 法国0 m+ f2 l) l( U" R3 c; l4 N
类  别 可骇. K5 o: G# t( \& j, N* q# \# S
语  言 意大利语/ N8 _8 G( ]: J/ d" a) p) H  d
上映日期 1997-04-042 @; f- X$ k& z8 f8 f2 v% ^$ k, j; S
IMDb评分  5.7/10 from 1633 users: ~- X% ~) W: H! W5 |
IMDb链接  https://www.imdb.com/title/tt0119588/ W" @$ p' ?! q" I2 v
豆瓣评分 6.3/10 from 68 users
2 J  c# r, V7 l豆瓣链接 https://movie.douban.com/subject/2002885/
7 J, O: a! @3 Z& ]7 N. g6 M6 t片  长 98 分钟7 H( m5 c9 i! R/ Z
导  演 塞尔吉奥·斯蒂韦尔蒂 Sergio Stivaletti
2 @7 `- a4 ?2 N7 X$ c( Z编  剧 达里奥·阿基多 Dario Argento / 卢西奥·弗尔兹 Lucio Fulci / Daniele Stroppa / 加斯顿·勒鲁 Gaston Leroux
: ]' [! o  O8 h' I$ |7 `( Y. |3 [主  演 罗贝尔·侯赛因 Robert Hossein/ l6 ^8 i9 Q2 j% K; D
       罗敏娜·曼德罗 Romina Mondello
3 H0 l5 @/ ]* e* E+ a: @0 r       Riccardo Serventi Longhi" ?( Q- e1 a2 a4 r4 c
       加布里埃拉·乔尔杰利 Gabriella Giorgelli+ q  L* _* c, W! {: ^
       Umberto Balli
  n/ p% A' L/ H! D( e2 e0 a, K       瓦莱丽·法尔曼 Valery Valmond
& ~, J# l: d4 Z5 h/ w: z! P# W) K) n       Gianni Franco' n5 B( Y% B' ]0 H: x/ s( g
       Antonello Murru' ~$ `" b* j1 {- n1 E0 V5 _" \
       Daniele Auber
3 Q3 u! A6 z+ W& m2 I) k6 U       Romano Iannelli
* J* D( ?) ^/ g       罗莎·别亚内达 Rosa Pianeta# y) ~' ?. O, S
       Sonia Topazio: H$ Z4 s3 C: y; ^5 t" ^$ D$ |% H
       Massimo Vanni
/ Y  R; H- r) J       Aldo Massasso2 t- T% z- u6 h/ [9 k0 o
       Sabrina Pellegrino8 b4 q9 C% v$ v6 o; Y
8 }5 [  C0 T/ F5 A2 n( `' ]
, I4 ]1 X( U9 l& v! Z  l' ?2 C7 n
标  签 可骇 | 意大利 | 惊悚 | 科幻 | 悬疑 | Lucio_Fulci | 1997 | 达里奥·阿基多% r  S2 s3 _9 v7 v# d7 J+ Q

- n- P# x6 _$ M简  介  ) p% X! t/ B2 g9 a# o
$ r4 g8 A) v) ]8 C  L& f
  Story by Dario Argento, Lucio Fulci and Daniele Stroppa6 g8 _! a# \1 Q5 E0 B9 E( k
  1. Video) n/ N2 k. E  M
  2. ID                                       : 1
    * `+ g1 ?: B8 F1 Y) N! f# L
  3. Format                                   : AVC' e  Z4 N3 f0 d: |8 j4 w$ }0 e
  4. Format/Info                              : Advanced Video Codec1 b( v* F- V$ U
  5. Format profile                           : High@L4$ x: q1 p) l( v5 F. g
  6. Format settings                          : CABAC / 5 Ref Frames# K- I1 O/ d% Z
  7. Format settings, CABAC                   : Yes
    " Q0 [, U6 V# x% [7 i7 r
  8. Format settings, Reference frames        : 5 frames
    ' A; z$ p2 o; p3 `; e/ p3 d$ v
  9. Codec ID                                 : V_MPEG4/ISO/AVC! e7 A0 M0 N. v
  10. Duration                                 : 1 h 38 min9 a' g2 `6 Z& i, Z# J0 `
  11. Bit rate                                 : 6 545 kb/s! ?  Y! N' g9 i4 \% S! e
  12. Width                                    : 1 280 pixels0 ]3 m6 j. g' L6 c" V( C4 o* V
  13. Height                                   : 720 pixels. G. ^6 ~- P! p8 r
  14. Display aspect ratio                     : 16:95 f2 P: o2 }% C& I' o  l
  15. Frame rate mode                          : Constant
    ; }) g4 H! \# C3 u9 g& P1 b
  16. Frame rate                               : 23.976 (24000/1001) FPS
    + M  p6 ^; x" O" G) E
  17. Color space                              : YUV' v$ ^$ A8 f- K8 F: A1 A6 _- u) C! X
  18. Chroma subsampling                       : 4:2:04 N* c4 D+ d6 L9 ]% g
  19. Bit depth                                : 8 bits
    . b! `7 k' a8 ^2 n7 t2 C7 W
  20. Scan type                                : Progressive; r& N) S' C$ i! p  O) g
  21. Bits/(Pixel*Frame)                       : 0.296
    3 @" S. P" C! E8 Q$ ~5 A, l4 ]
  22. Stream size                              : 4.49 GiB (68%)
    9 v* \' x) o; f, p- O. x
  23. Writing library                          : x264 core 157 r2969 d4099dd
    ) Y  b# `3 W! U7 [
  24. Encoding settings                        : cabac=1 / ref=5 / deblock=1:-2:-2 / analyse=0x3:0x133 / me=umh / subme=9 / psy=1 / psy_rd=1.00:0.00 / mixed_ref=1 / me_range=16 / chroma_me=1 / trellis=2 / 8x8dct=1 / cqm=0 / deadzone=21,11 / fast_pskip=0 / chroma_qp_offset=-2 / threads=12 / lookahead_threads=1 / sliced_threads=0 / nr=0 / decimate=1 / interlaced=0 / bluray_compat=0 / constrained_intra=0 / bframes=3 / b_pyramid=2 / b_adapt=2 / b_bias=0 / direct=3 / weightb=1 / open_gop=0 / weightp=2 / keyint=240 / keyint_min=23 / scenecut=40 / intra_refresh=0 / rc_lookahead=50 / rc=2pass / mbtree=1 / bitrate=6545 / ratetol=1.0 / qcomp=0.60 / qpmin=0 / qpmax=69 / qpstep=4 / cplxblur=20.0 / qblur=0.5 / vbv_maxrate=62500 / vbv_bufsize=78125 / nal_hrd=none / filler=0 / ip_ratio=1.40 / aq=1:0.70& S* }: F( Q, i) X
  25. Default                                  : Yes
    : E( n& N* q1 {) t" l* m: ?3 K0 z* ~
  26. Forced                                   : No3 H! X! W2 w% B; O8 F/ I8 D
  27. ( F/ j% S0 p. r) H( |( W1 _& @
  28. Audio #1  u0 T! q+ X, N" |
  29. ID                                       : 2
    / K8 ~  S4 [6 J9 N1 W! h" \
  30. Format                                   : DTS
    + D- z/ g) r7 w% V" N, M
  31. Format/Info                              : Digital Theater Systems
    $ Y4 N; G# ~. |3 D/ o+ }
  32. Codec ID                                 : A_DTS& d0 ?& k2 J8 Z/ z
  33. Duration                                 : 1 h 38 min
    2 b" }. F4 o& m  S# g* b
  34. Bit rate mode                            : Constant
    % a4 w) j& i4 {) H5 ]* i) T
  35. Bit rate                                 : 1 509 kb/s* L! V4 A# v) ~  z' k% U$ K  ~
  36. Channel(s)                               : 6 channels# a, w0 F- d) O6 H
  37. Channel layout                           : C L R Ls Rs LFE; P5 C& K: j% s0 Z2 {6 [
  38. Sampling rate                            : 48.0 kHz
    5 B: y' w, M2 t5 t
  39. Frame rate                               : 93.750 FPS (512 SPF)
    3 i9 P: C& ?' `) B9 `! ~; F& Q
  40. Bit depth                                : 24 bits
    1 P3 ~; }4 `5 o  }: C- Q
  41. Compression mode                         : Lossy
    $ p' k1 s* t7 E2 P! g7 z
  42. Stream size                              : 1.03 GiB (16%); `6 B/ N3 I& C. q% U
  43. Language                                 : Italian. T; L( c* N; Y) b' B9 g
  44. Default                                  : Yes
    5 ?9 K' w4 s5 w* j9 B- T8 M
  45. Forced                                   : No" y$ F5 V" E' d+ z# G
  46. " }& D/ U' ?; V1 {7 R; e
  47. Audio #2: q2 D3 T  [2 o& _4 W3 ?+ c7 Y& Y
  48. ID                                       : 3# W, S  H1 u; ]3 E% z* t5 ^8 U
  49. Format                                   : DTS
    " p- p5 w/ J2 j  Y. K% s
  50. Format/Info                              : Digital Theater Systems
    , d* T  y- v8 ?$ f9 G
  51. Codec ID                                 : A_DTS
    / b! e. |' A4 |
  52. Duration                                 : 1 h 38 min
    ! I6 D+ j1 i! h; M  c" H+ L
  53. Bit rate mode                            : Constant
    # F3 ]# t; C* ]% k. U% f
  54. Bit rate                                 : 1 509 kb/s
    7 V* `+ X( I: ]4 L
  55. Channel(s)                               : 6 channels
    ) e6 g* n7 U, U; h  A* [* M, g
  56. Channel layout                           : C L R Ls Rs LFE! g$ \7 j3 C1 e% U6 l
  57. Sampling rate                            : 48.0 kHz
    - y& F( m9 j* \, V2 I
  58. Frame rate                               : 93.750 FPS (512 SPF)
    1 T3 v! L; \; p; z9 }6 n' d
  59. Bit depth                                : 24 bits6 p8 ^3 T; }1 n
  60. Compression mode                         : Lossy$ j( V. y$ l" _  j* x
  61. Stream size                              : 1.03 GiB (16%)
    # S8 D1 R7 k& k; w1 v& Q1 R( R! O
  62. Language                                 : English
    4 \0 h7 t/ h+ j7 D
  63. Default                                  : No6 V8 O2 B2 n3 P" c% f; R* _* p- E
  64. Forced                                   : No: [: q. P, M( D/ R5 X) R* u2 t% H
  65. 3 q8 t* ~+ O* P( E0 L6 t) D
  66. Text #1
    9 G! q; w# k- o8 I
  67. ID                                       : 4
    0 A$ c1 k# _7 ~9 v
  68. Format                                   : UTF-88 M' B+ C$ @- T+ n, c
  69. Codec ID                                 : S_TEXT/UTF8& p1 O5 y: l4 c8 q: `
  70. Codec ID/Info                            : UTF-8 Plain Text
    / h2 _( |6 a) ?! ]( k. I% [: K
  71. Duration                                 : 1 h 32 min
    3 i& I" \* I& G8 I1 L
  72. Bit rate                                 : 32 b/s3 b. U0 ~/ e( {
  73. Count of elements                        : 6590 B' S" m+ G' T+ m; }6 V
  74. Stream size                              : 21.8 KiB (0%)
    ( }: R; @3 K; z( D, T
  75. Language                                 : English, q) C6 M0 u7 r  o; A! V
  76. Default                                  : Yes
    ! M, h: b  q6 I* g1 ]
  77. Forced                                   : No: M# r7 h, k& M- N) y$ k0 E

  78. 8 A' s5 c. F9 C; ^+ i- R1 r
  79. Text #2  F$ ~! m- O0 s  O
  80. ID                                       : 5$ I" i6 P( ?% r6 V& q0 j
  81. Format                                   : UTF-88 }. Y9 E0 g! Q
  82. Codec ID                                 : S_TEXT/UTF8# `! ~- Y& m! E5 ^: T8 h$ A
  83. Codec ID/Info                            : UTF-8 Plain Text. d$ Q/ X0 H9 V
  84. Duration                                 : 1 h 37 min4 l, b& d7 R6 |/ F5 `% H
  85. Bit rate                                 : 41 b/s1 J1 r* ?9 L1 h
  86. Count of elements                        : 1195" f# l3 F, J" h) q) j& _9 _" I
  87. Stream size                              : 29.5 KiB (0%)
    0 G: ^* W' P6 t9 E" ]
  88. Title                                    : SDH9 m- j, a  l% _/ I
  89. Language                                 : English
    # x& i& S' U! T# s7 i
  90. Default                                  : No
    + ]; Q& E1 B- R5 I/ |' h4 v$ p
  91. Forced                                   : No
    % d) I9 O+ v) t! _+ {/ a

  92. : X* _$ J$ G* n! j, G
  93. Menu1 r. W# y' Q# p' D1 D% |
  94. 00:00:00.000                             : en:Chapter 01
    0 k" e; o$ J3 o: b9 o
  95. 00:05:20.529                             : en:Chapter 027 \1 {8 }; H- Y7 l
  96. 00:15:32.849                             : en:Chapter 03, B( C) R- I& J- M& P0 L* N
  97. 00:28:47.267                             : en:Chapter 04
    2 m5 J! M* i" \1 f3 r4 f
  98. 00:41:04.379                             : en:Chapter 05
    ! ~4 B) k8 I+ L1 _
  99. 00:49:42.730                             : en:Chapter 06) e6 p% j- Y. x9 t0 p
  100. 00:58:42.519                             : en:Chapter 07
    & |. r7 h2 _& B1 N0 K" r
  101. 01:10:09.455                             : en:Chapter 08
    9 Q, C7 d2 P2 B& l: i+ ]  t
  102. 01:18:23.115                             : en:Chapter 092 p* o- V/ s# \2 Z' L
  103. 01:29:59.978                             : en:Chapter 10
复制代码
, {9 i1 ~# S) J: @* S5 B2 q
170351x8vwhjujuwsznij2.png
; E% H: @  O( |8 d+ e$ e  {3 M1 F6 q3 w0 u' m* @

# F; p% u$ I7 o! T: |8 |9 a
  _* t/ t  Q9 b
9 J- G* \) I0 C9 C2 W
! r7 k1 U- l9 W' z
9 }" O7 @( ]% g' c" I' s. m
  [- F/ U0 l4 t6 q# z4 g# _( m0 }- r) }
VIP会员免费任意下载本站所有资源!---点击开通
回复

使用道具 举报

级别:专业龙套 Lv.4

注册时间
2019-4-11
最后登录
2019-11-21
听众
12
收听
0
主题
0
蓝光币
154 枚
贡献
0 点
发表于 2019-11-5 09:41:29 | 显示全部楼层
# m( w6 a0 _" @
这东西我收了!谢谢楼主!中国高清电影网真好!
VIP会员免费任意下载本站所有资源!---点击开通
回复

使用道具 举报

级别:一举成名 Lv.7

注册时间
2019-4-24
最后登录
2019-11-21
听众
13
收听
0
主题
0
蓝光币
197 枚
贡献
0 点
发表于 2019-11-7 10:29:28 | 显示全部楼层
楼主发贴辛苦了,谢谢楼主分享!我觉得中国高清电影网是注册对了!
VIP会员免费任意下载本站所有资源!---点击开通
回复

使用道具 举报

懒得打字嘛,点击右侧快捷回复 【右侧内容,后台自定义】
您需要登录后才可以回帖 登录 | 立即注册

本版积分规则

QQ|Archiver|手机版|小黑屋| 中国高清网 |网站地图

GMT+8, 2019-11-22 05:37 , Processed in 0.234687 second(s), 37 queries .

Powered by HDchina X3.4

Copyright 2017-2019©HDchina.All right reserved

返回顶部 联系我们