查看: 125|回复: 2

[恐怖片] 蜡制面具 The.Wax.Mask.1997.720p.BluRay.x264-CREEPSHOW 6.56GB

[复制链接]

 成长值: 5540

级别:资源管理组

注册时间
2017-10-20
最后登录
2020-6-3
听众
1
收听
0
主题
96338
蓝光币
154977 枚
贡献
20716 点
发表于 2019-11-4 17:04:14 | 显示全部楼层 |阅读模式
蜡制面具 The.Wax.Mask.1997.720p.BluRay.x264-CREEPSHOW 6.56GB-1.png
9 ^/ L% P$ w8 U6 N" y( W/ J0 ^/ z4 Y/ D7 P( |% C+ G' [' S
译  名 蜡制面具 / M.D.C. - Maschera di cera
# U. ^0 {3 T3 P: `片  名 Wax Mask7 T! a/ ]  a6 ~1 U3 |( Q! {# W* l
年  代 19977 a$ y( C6 z! \. V. G8 O# j' s
产  地 意大利 / 法国5 F" |* i% z5 g. W1 n+ s
类  别 可骇
! V9 }7 q% `3 c' S" c) ^语  言 意大利语( q2 Q; y6 l: F( D0 v! c. f( w
上映日期 1997-04-04
3 X8 b# H* U* a% A) F5 t3 jIMDb评分  5.7/10 from 1633 users$ L& e2 _( {+ a: `
IMDb链接  https://www.imdb.com/title/tt0119588+ I* C- `$ r$ c$ W9 s
豆瓣评分 6.3/10 from 68 users
9 k( q& T7 s! t5 ?! D豆瓣链接 https://movie.douban.com/subject/2002885/3 k/ b- x3 R( p! D( o0 H' r
片  长 98 分钟
: W! K4 ]. Z- J; H% _# N9 [+ k导  演 塞尔吉奥·斯蒂韦尔蒂 Sergio Stivaletti. N) D& j- C$ ?! ]6 f. \8 X$ K
编  剧 达里奥·阿基多 Dario Argento / 卢西奥·弗尔兹 Lucio Fulci / Daniele Stroppa / 加斯顿·勒鲁 Gaston Leroux
7 Q2 x+ W3 P% S9 g主  演 罗贝尔·侯赛因 Robert Hossein) \2 K9 a( P6 t7 N* Z9 D
       罗敏娜·曼德罗 Romina Mondello
$ C5 P% l1 z; J2 V( D       Riccardo Serventi Longhi% N0 o$ y3 \% l" E8 n& D9 `
       加布里埃拉·乔尔杰利 Gabriella Giorgelli+ k- T" U. }6 A7 ?' n8 l: q
       Umberto Balli
& ?7 R( F* ^7 Y+ Y       瓦莱丽·法尔曼 Valery Valmond
/ `# |7 o6 U/ S' p* r; E       Gianni Franco  i- U* z( R" t
       Antonello Murru, h& s* C: x# t5 P4 a
       Daniele Auber
( ?3 o( Y, N2 M! h% V' F5 R% g6 B9 v       Romano Iannelli8 H/ E( V9 \7 q- k6 l1 c
       罗莎·别亚内达 Rosa Pianeta& c# e" k5 V9 q* I# Y* K% Z
       Sonia Topazio
8 K8 C& M3 R  n. f9 y       Massimo Vanni
3 [& [7 n8 I0 X; h. A       Aldo Massasso" ?4 D8 t! P" ^" h6 r3 ^# d4 z9 B
       Sabrina Pellegrino* E& |# X& q" t) T4 ^/ x! E% g: B

; I2 \; a2 Z/ P. W) b0 _1 c' x4 M( u/ y6 a( q9 x4 U6 ]4 R  L
标  签 可骇 | 意大利 | 惊悚 | 科幻 | 悬疑 | Lucio_Fulci | 1997 | 达里奥·阿基多4 l# }& l) W! F4 m# }5 K# ~

5 _# `* _+ a5 F简  介  
3 q; r9 D, D/ a7 s
* u/ T- ?8 J$ g1 N  Story by Dario Argento, Lucio Fulci and Daniele Stroppa& [8 C8 g" R8 M- N( l2 x$ f
  1. Video5 X% D" Q/ ^. k! T6 Q( c6 ^
  2. ID                                       : 1. ^4 f9 o. [+ Q+ O! S
  3. Format                                   : AVC
    ' x' k  r( G5 A& q
  4. Format/Info                              : Advanced Video Codec$ k/ m- l# d) v5 H- `
  5. Format profile                           : High@L4
    / w; j6 J% b/ P' }" M, Q4 Q
  6. Format settings                          : CABAC / 5 Ref Frames2 [) X# Z5 I6 z- i' v9 |
  7. Format settings, CABAC                   : Yes  G1 a6 q7 j$ @) r3 A
  8. Format settings, Reference frames        : 5 frames
    ( c/ X4 H6 {/ G( v5 w
  9. Codec ID                                 : V_MPEG4/ISO/AVC1 e& l+ @  m6 n9 m& X
  10. Duration                                 : 1 h 38 min
    2 y, V. z* J: x6 k  |3 L
  11. Bit rate                                 : 6 545 kb/s7 O' ?; p7 I+ |6 x/ b% e7 k
  12. Width                                    : 1 280 pixels
    ( d& |) Q4 u: d. R% J, A
  13. Height                                   : 720 pixels
    . v7 ?. m( I: V5 a
  14. Display aspect ratio                     : 16:9: N8 v5 D, e) }& f7 P
  15. Frame rate mode                          : Constant
    6 r6 q$ |3 K- K4 e7 L
  16. Frame rate                               : 23.976 (24000/1001) FPS
    * B3 x# i, r, b" f
  17. Color space                              : YUV
    ! F! b4 S9 H) O0 g2 Q, S
  18. Chroma subsampling                       : 4:2:0/ h. O' G+ i) V3 }& b
  19. Bit depth                                : 8 bits' K% N) Y: i! `( a3 n+ Z
  20. Scan type                                : Progressive
    8 E+ l; t9 `7 L5 Q8 S: l; _
  21. Bits/(Pixel*Frame)                       : 0.296
    " t( |0 [7 J" O
  22. Stream size                              : 4.49 GiB (68%)- }* K) Z, ]" M" x
  23. Writing library                          : x264 core 157 r2969 d4099dd
    $ P7 ?4 t0 r; a$ o* Y
  24. Encoding settings                        : cabac=1 / ref=5 / deblock=1:-2:-2 / analyse=0x3:0x133 / me=umh / subme=9 / psy=1 / psy_rd=1.00:0.00 / mixed_ref=1 / me_range=16 / chroma_me=1 / trellis=2 / 8x8dct=1 / cqm=0 / deadzone=21,11 / fast_pskip=0 / chroma_qp_offset=-2 / threads=12 / lookahead_threads=1 / sliced_threads=0 / nr=0 / decimate=1 / interlaced=0 / bluray_compat=0 / constrained_intra=0 / bframes=3 / b_pyramid=2 / b_adapt=2 / b_bias=0 / direct=3 / weightb=1 / open_gop=0 / weightp=2 / keyint=240 / keyint_min=23 / scenecut=40 / intra_refresh=0 / rc_lookahead=50 / rc=2pass / mbtree=1 / bitrate=6545 / ratetol=1.0 / qcomp=0.60 / qpmin=0 / qpmax=69 / qpstep=4 / cplxblur=20.0 / qblur=0.5 / vbv_maxrate=62500 / vbv_bufsize=78125 / nal_hrd=none / filler=0 / ip_ratio=1.40 / aq=1:0.70
    # |4 v$ Z+ L, U  \, Y" J
  25. Default                                  : Yes
    7 A# S8 }8 e+ w, Y
  26. Forced                                   : No
    ' l2 C+ {; _; D9 c. |

  27. + h; C! u3 ^6 l0 t
  28. Audio #1
    3 i: c" f' i8 g# g
  29. ID                                       : 27 i4 I9 i9 y  X+ i
  30. Format                                   : DTS5 Q* \) f, w; ?6 E  i
  31. Format/Info                              : Digital Theater Systems4 K# A% `# k9 V0 ]1 A, @' F$ S
  32. Codec ID                                 : A_DTS* M$ P& U, W1 `8 Q
  33. Duration                                 : 1 h 38 min
    4 z- w$ n: e0 E" `& t# z; [  |
  34. Bit rate mode                            : Constant9 O" h2 ^  s5 o
  35. Bit rate                                 : 1 509 kb/s
    ' `" `$ P/ P" l7 P$ y
  36. Channel(s)                               : 6 channels" h, ~& ]0 p) F% G1 J0 V
  37. Channel layout                           : C L R Ls Rs LFE
    ( l# `7 o" K) ~: L' r
  38. Sampling rate                            : 48.0 kHz
    2 J: |0 Q+ W1 A6 O/ B1 o6 K5 U
  39. Frame rate                               : 93.750 FPS (512 SPF)
    * e9 B3 `4 i/ U6 S( Q0 Y; m& X) u6 v
  40. Bit depth                                : 24 bits2 F: V$ M; D  e7 M
  41. Compression mode                         : Lossy  g$ p( p  B2 |5 a, S8 U
  42. Stream size                              : 1.03 GiB (16%)
    ! D- L% v: X1 `9 w. t
  43. Language                                 : Italian4 X7 @- x1 u3 m4 F3 f3 w" @
  44. Default                                  : Yes. ?. [' z5 [( ]) ]3 W: E
  45. Forced                                   : No
    * L& O; w; C* _; @! q+ _

  46. 9 |% h# {' V4 I2 c
  47. Audio #20 R# a5 ~8 \5 a. b2 V* P$ a1 p
  48. ID                                       : 3
    $ W" y) v& Y) w1 a) f' p6 g
  49. Format                                   : DTS: k" t, r. Y; p7 r
  50. Format/Info                              : Digital Theater Systems7 }9 Z5 @* I. U6 }) w- ~7 L
  51. Codec ID                                 : A_DTS
    $ c& W4 z  a3 O( ]4 a: }- H  i+ B
  52. Duration                                 : 1 h 38 min
    " X3 u+ b  G3 P/ b1 C! Z$ x
  53. Bit rate mode                            : Constant- h$ ^/ |8 W3 y) G
  54. Bit rate                                 : 1 509 kb/s3 k5 h8 E1 d$ b1 K
  55. Channel(s)                               : 6 channels
    0 J! g  _8 d: _) C1 T
  56. Channel layout                           : C L R Ls Rs LFE/ G) v* Y8 {7 r( S- \
  57. Sampling rate                            : 48.0 kHz1 @, Z7 {  S' a7 n8 n. P3 e
  58. Frame rate                               : 93.750 FPS (512 SPF). X; M# V. I7 ^( F8 {
  59. Bit depth                                : 24 bits- t; M7 w' C% L, ]
  60. Compression mode                         : Lossy
    9 @' x5 N! @& s. F" c3 O
  61. Stream size                              : 1.03 GiB (16%)4 [8 X* R  x) {$ U8 _# h5 {
  62. Language                                 : English
    % ]" S/ v% ?% r9 {" R5 n
  63. Default                                  : No
    2 R, |3 `! P+ u7 u0 B8 P1 _/ S. S
  64. Forced                                   : No5 a8 l6 t, M4 e3 t

  65. ; n! u. `: _4 w5 y9 S2 b" s4 q' m
  66. Text #1
    7 d, N: o3 D  V2 |
  67. ID                                       : 49 x+ b0 X" @5 I9 x1 J/ s( X
  68. Format                                   : UTF-8
    3 `* X' I* ?& b3 G4 Y) k% O
  69. Codec ID                                 : S_TEXT/UTF8% ~6 e. a. F& {! R4 D* F
  70. Codec ID/Info                            : UTF-8 Plain Text9 |+ m% Y/ f  X+ B9 l- X" u
  71. Duration                                 : 1 h 32 min
    + y& b0 K" D$ }. o6 A
  72. Bit rate                                 : 32 b/s0 @: l- H" E7 J+ ?, H6 ^# \7 X7 _/ }
  73. Count of elements                        : 659; V0 n/ g! H; T# Z- U
  74. Stream size                              : 21.8 KiB (0%)
    ; W- ]- ~# L! f! h" t
  75. Language                                 : English
    ! t" I# ]1 q3 S9 y. H
  76. Default                                  : Yes3 P, C6 k8 ]/ N& P/ d8 g" @
  77. Forced                                   : No
    6 N* C7 {' T# Z" l+ x

  78. . ~; A: J  X% E# q% k
  79. Text #2
    . l, Y0 ~. v6 B- o2 u' n
  80. ID                                       : 5
      d- S; w" F% y* Q! O& r
  81. Format                                   : UTF-8- r; S# L9 j3 O2 ~- q
  82. Codec ID                                 : S_TEXT/UTF8- Z; _7 S- t  I/ B, A. j7 `
  83. Codec ID/Info                            : UTF-8 Plain Text6 k. G, j+ O2 A# V. T; i
  84. Duration                                 : 1 h 37 min
    ; Z  c, B: l& B5 ~5 n, g
  85. Bit rate                                 : 41 b/s
    & t+ w) \. J4 U- E. ]
  86. Count of elements                        : 11955 B5 \- M# V- F* P6 w. c" ]: Y+ C
  87. Stream size                              : 29.5 KiB (0%)
    6 o1 i- \8 y# f* D1 B/ Q5 P
  88. Title                                    : SDH' {' f* @% V6 d" f9 \  Z7 s$ C
  89. Language                                 : English
    . C6 h/ g$ W; O& Z
  90. Default                                  : No2 S- r7 Z* `: P. g
  91. Forced                                   : No4 B& c: M6 Q$ ?& i' ~

  92. % K9 E8 m9 o# x$ t+ Z1 }
  93. Menu+ {5 g8 l4 C$ T1 y/ @
  94. 00:00:00.000                             : en:Chapter 01
    1 [+ E# N, f: i' |# O0 v* q# v
  95. 00:05:20.529                             : en:Chapter 02+ i4 \3 T. z- b: {5 v& m& o( U1 T6 K; K
  96. 00:15:32.849                             : en:Chapter 03+ j1 N# ^  L6 E3 X5 h* t
  97. 00:28:47.267                             : en:Chapter 04
    6 z9 d* c) _/ t6 q. m: F' Z9 V
  98. 00:41:04.379                             : en:Chapter 05, t# L9 A" ^+ Q, t8 q) `0 d
  99. 00:49:42.730                             : en:Chapter 06! o. T/ L) o' ]/ R$ K& }: U
  100. 00:58:42.519                             : en:Chapter 07+ ^. [' G" c: M
  101. 01:10:09.455                             : en:Chapter 08
    : x* \; u, |2 U+ s/ A
  102. 01:18:23.115                             : en:Chapter 09
    8 D9 j5 W5 H2 M3 v
  103. 01:29:59.978                             : en:Chapter 10
复制代码
7 f. i/ F5 i$ J* G3 j) @8 e7 `
170351x8vwhjujuwsznij2.png 0 S  A; D# }: b# E% r0 g3 q9 A
4 J' s2 D( a1 i
9 V( M8 v( T/ a& n$ t  [) m

  T6 t1 p: o. J2 a
  Z; M7 a" k, c5 W# l; x1 A! _) k6 m  }+ j
2 h+ Y7 K8 V0 y

0 r7 L9 L9 j3 e. r' w
回复

使用道具 举报

级别:荣升主角 Lv.5

注册时间
2019-4-11
最后登录
2020-6-4
听众
14
收听
0
主题
0
蓝光币
285 枚
贡献
0 点
发表于 2019-11-5 09:41:29 | 显示全部楼层
: V: X! g9 r" W* @4 S5 Z
这东西我收了!谢谢楼主!中国高清电影网真好!
回复

使用道具 举报

级别:功成名就 Lv.9

注册时间
2019-4-24
最后登录
2020-6-3
听众
14
收听
0
主题
0
蓝光币
541 枚
贡献
0 点
发表于 2019-11-7 10:29:28 | 显示全部楼层
楼主发贴辛苦了,谢谢楼主分享!我觉得中国高清电影网是注册对了!
回复

使用道具 举报

懒得打字嘛,点击右侧快捷回复 【右侧内容,后台自定义】
您需要登录后才可以回帖 登录 | 立即注册

本版积分规则

Archiver|手机版|小黑屋| 中国高清网 ( ICP备17007870号-2 ) |网站地图 

GMT+8, 2020-6-4 16:11 , Processed in 0.171477 second(s), 38 queries .

Powered by HDchina X3.4

Copyright 2017-2019©HDchina.All right reserved

返回顶部 联系我们