查看: 73|回复: 1

[剧情片] 再造战士/宇宙战士 Universal.Soldier.1992.REMASTERED.1080p.BluRay.X264-AMIABLE 10.94GB

[复制链接]

 成长值: 3230

级别:资源管理组

注册时间
2017-10-20
最后登录
2019-11-21
听众
1
收听
0
主题
87390
蓝光币
63616 枚
贡献
11749 点
发表于 2019-11-4 17:02:17 | 显示全部楼层 |阅读模式
再造战士/宇宙战士 Universal.Soldier.1992.REMASTERED.1080p.BluRay.X264-AMIABLE 10.94GB-1.png

译  名 再造战士 / 宇宙战士 / 魔鬼号令
片  名 Universal Soldier
年  代 1992
产  地 美国
类  别 剧情 / 行动 / 科幻
语  言 英语
上映日期 1992-07-10
IMDb评分  6.0/10 from 78583 users
IMDb链接  https://www.imdb.com/title/tt0105698
豆瓣评分 6.6/10 from 2917 users
豆瓣链接 https://movie.douban.com/subject/1298717/
片  长 102 分钟
导  演 罗兰·艾默里奇 Roland Emmerich
编  剧 Christopher Leitch / Richard Rothstein
主  演 杜夫·朗格 Dolph Lundgren
       尚格·云顿 Jean-Claude Van Damme
       艾利·沃克 Ally Walker


标  签 科幻 | 行动 | 美国 | 尚格·云顿 | 1992 | 美国电影 | 暴力 | 行动片

简  介  

  越战后,美国政府停止了一项绝密的科妹计划。科妹家们将越战中牺牲的兵士的尸身冰冻起来,植入电脑芯片,输入战争法式,讲他们革新成为新一代的战争机械人――“宇宙战士”,这些机械人没有感情和之前的记忆,只要冰冷的杀戮兵器。兵士卢克(尚格?云顿 Jean-Claude Van Damme 饰)和班长安德鲁(杜夫?朗格 Dolph Lundgren 饰)就是其中两员,他们被派往加入一场新的战争。战争中,两人的芯片忽然出错,令两人都规复了之前的记忆。
  卢克记起越战昔时正是安德鲁忽然性情大变将部属和俘虏都杀光,误闯美军基地的女记者罗伯斯(艾丽?沃克 Ally Walker 饰)意围得悉了美军这一奥秘。原本罗伯斯难逃一死,关键时辰卢克救走了她。因而,美军派出一切的宇宙战士起头追杀二人。
  1. Video
  2. ID                                       : 1
  3. Format                                   : AVC
  4. Format/Info                              : Advanced Video Codec
  5. Format profile                           : High@L4
  6. Format settings                          : CABAC / 5 Ref Frames
  7. Format settings, CABAC                   : Yes
  8. Format settings, Reference frames        : 5 frames
  9. Codec ID                                 : V_MPEG4/ISO/AVC
  10. Duration                                 : 1 h 43 min
  11. Bit rate                                 : 13.6 Mb/s
  12. Width                                    : 1 920 pixels
  13. Height                                   : 816 pixels
  14. Display aspect ratio                     : 2.35:1
  15. Frame rate mode                          : Constant
  16. Frame rate                               : 24.000 FPS
  17. Color space                              : YUV
  18. Chroma subsampling                       : 4:2:0
  19. Bit depth                                : 8 bits
  20. Scan type                                : Progressive
  21. Bits/(Pixel*Frame)                       : 0.363
  22. Stream size                              : 9.62 GiB (88%)
  23. Writing library                          : x264 core 158 r2984 3759fcb
  24. Encoding settings                        : cabac=1 / ref=5 / deblock=1:-3:-3 / analyse=0x3:0x133 / me=umh / subme=10 / psy=1 / psy_rd=1.05:0.00 / mixed_ref=1 / me_range=32 / chroma_me=1 / trellis=2 / 8x8dct=1 / cqm=0 / deadzone=21,11 / fast_pskip=0 / chroma_qp_offset=-2 / threads=24 / lookahead_threads=6 / sliced_threads=0 / nr=0 / decimate=0 / interlaced=0 / bluray_compat=0 / constrained_intra=0 / bframes=10 / b_pyramid=2 / b_adapt=2 / b_bias=0 / direct=3 / weightb=1 / open_gop=0 / weightp=2 / keyint=240 / keyint_min=24 / scenecut=40 / intra_refresh=0 / rc_lookahead=60 / rc=2pass / mbtree=1 / bitrate=13637 / ratetol=1.0 / qcomp=0.60 / qpmin=0 / qpmax=69 / qpstep=4 / cplxblur=20.0 / qblur=0.5 / ip_ratio=1.30 / aq=3:0.70
  25. Default                                  : Yes
  26. Forced                                   : No
  27. Statistics Tags Issue                    : no_variable_data 1970-01-01 00:00:00 / no_variable_data 2010-02-22 21:41:29
  28. FromStats_BitRate                        : 13621345
  29. FromStats_Duration                       : 01:43:20.417000000
  30. FromStats_FrameCount                     : 148810
  31. FromStats_StreamSize                     : 10557252587

  32. Audio
  33. ID                                       : 2
  34. Format                                   : DTS
  35. Format/Info                              : Digital Theater Systems
  36. Codec ID                                 : A_DTS
  37. Duration                                 : 1 h 43 min
  38. Bit rate mode                            : Constant
  39. Bit rate                                 : 1 509 kb/s
  40. Channel(s)                               : 6 channels
  41. Channel layout                           : C L R Ls Rs LFE
  42. Sampling rate                            : 48.0 kHz
  43. Frame rate                               : 93.750 FPS (512 SPF)
  44. Bit depth                                : 24 bits
  45. Compression mode                         : Lossy
  46. Stream size                              : 1.09 GiB (10%)
  47. Language                                 : English
  48. Default                                  : Yes
  49. Forced                                   : No
  50. Statistics Tags Issue                    : no_variable_data 1970-01-01 00:00:00 / no_variable_data 2010-02-22 21:41:29
  51. FromStats_BitRate                        : 1508999
  52. FromStats_Duration                       : 01:43:20.427000000
  53. FromStats_FrameCount                     : 581290
  54. FromStats_StreamSize                     : 1169555480

  55. Text #1
  56. ID                                       : 3
  57. Format                                   : UTF-8
  58. Codec ID                                 : S_TEXT/UTF8
  59. Codec ID/Info                            : UTF-8 Plain Text
  60. Language                                 : English
  61. Default                                  : No
  62. Forced                                   : No
  63. Statistics Tags Issue                    : no_variable_data 1970-01-01 00:00:00 / no_variable_data 2010-02-22 21:41:29
  64. FromStats_BitRate                        : 47
  65. FromStats_Duration                       : 01:36:08.334000000
  66. FromStats_FrameCount                     : 1050
  67. FromStats_StreamSize                     : 34128

  68. Text #2
  69. ID                                       : 4
  70. Format                                   : UTF-8
  71. Codec ID                                 : S_TEXT/UTF8
  72. Codec ID/Info                            : UTF-8 Plain Text
  73. Title                                    : SDH
  74. Language                                 : English
  75. Default                                  : No
  76. Forced                                   : No
  77. Statistics Tags Issue                    : no_variable_data 1970-01-01 00:00:00 / no_variable_data 2010-02-22 21:41:29
  78. FromStats_BitRate                        : 57
  79. FromStats_Duration                       : 01:37:10.750000000
  80. FromStats_FrameCount                     : 1246
  81. FromStats_StreamSize                     : 41652

  82. Menu
  83. 00:00:00.000                             : en:Chapter 01
  84. 00:10:27.500                             : en:Chapter 02
  85. 00:20:51.833                             : en:Chapter 03
  86. 00:31:24.750                             : en:Chapter 04
  87. 00:42:41.333                             : en:Chapter 05
  88. 00:53:13.833                             : en:Chapter 06
  89. 01:04:07.500                             : en:Chapter 07
  90. 01:14:22.667                             : en:Chapter 08
  91. 01:21:53.333                             : en:Chapter 09
  92. 01:31:32.875                             : en:Chapter 10
复制代码

再造战士/宇宙战士 Universal.Soldier.1992.REMASTERED.1080p.BluRay.X264-AMIABLE 10.94GB-2.png







VIP会员免费任意下载本站所有资源!---点击开通
回复

使用道具 举报

级别:荣升主角 Lv.5

注册时间
2018-3-27
最后登录
2019-11-21
听众
17
收听
0
主题
0
蓝光币
2166 枚
贡献
0 点
发表于 2019-11-4 17:37:55 | 显示全部楼层

楼主太厉害了!楼主,电影应该很好看我觉得中国高清电影网真是个好地方!
回复

使用道具 举报

懒得打字嘛,点击右侧快捷回复 【右侧内容,后台自定义】
您需要登录后才可以回帖 登录 | 立即注册

本版积分规则

QQ|Archiver|手机版|小黑屋| 中国高清网 |网站地图

GMT+8, 2019-11-22 05:48 , Processed in 0.242673 second(s), 37 queries .

Powered by HDchina X3.4

Copyright 2017-2019©HDchina.All right reserved

返回顶部 联系我们