查看: 24|回复: 0

[剧情片] 山本五十六 Admiral.Yamamoto.1968.JAPANESE.1080p.AMZN.WEBRip.AAC2.0.x264-SbR 10.81GB

[复制链接]

 成长值: 3230

级别:资源管理组

注册时间
2017-10-20
最后登录
2019-11-21
听众
1
收听
0
主题
87390
蓝光币
63614 枚
贡献
11749 点
发表于 2019-10-23 23:39:24 | 显示全部楼层 |阅读模式
山本五十六 Admiral.Yamamoto.1968.JAPANESE.1080p.AMZN.WEBRip.AAC2.0.x264-SbR 10.81GB-1.png

译  名 山本五十六 / Admiral Yamamoto / Reng? kantai shirei ch?kan: Yamamoto Isoroku / 海空生死战
片  名 連合艦隊司令長官:
年  代 1968
产  地 日本
类  别 剧情 / 战争
语  言 日语
上映日期 1968-08-14
IMDb评分  6.7/10 from 112 users
IMDb链接  https://www.imdb.com/title/tt0063822
豆瓣评分 7.3/10 from 786 users
豆瓣链接 https://movie.douban.com/subject/1296668/
片  长 131 分钟
导  演 丸山诚治
编  剧 须崎胜弥 Katsuya Susaki / 丸山诚治 / 桥本忍 Shinobu Hashimoto
主  演 三船敏郎 Toshir? Mifune
       加山雄三 Y?z? Kayama
       司叶子 Y?ko Tsukasa


标  签 日本 | 二战 | 战争 | 日本电影 | 三船敏郎 | 列传 | 山本五十六 | 历史

简  介  

  1940年9月,德、意、日三国建立同盟。山本五十六被录用为日本结合舰队总司令,并不能不“违反自己的志愿”,接管号令对美、英、荷等国开战。1941后12月8日零时,山本五十六亲身下达了“1280”密码号令,并亲身率领军队狙击美国珍珠港,从而对美军承平洋舰队形成重创,大胜而归。随后山本五十六倡议与美国讲和,但定见未被采用。在批示中途岛战争时,由于计谋上的严重失误,日本水兵蒙受惨重损失。情势蓦地逆转,美军攻势如虹,日军兵败如山倒。瓜达康纳岛上有三万多名日本陆军,他们遭到了美军飞机的昼夜轰炸,陷于绝境。山本五十六派出舰队炮击美军基地,辅佐尚存的陆军平安退却。1943年4月18日,山本五十六为了鼓舞火线军队的士气,乘坐一架轰炸机到火线观察。没想到日军的密码被美军窃取,美军派出空军机队将山本五十六的座机击落,一代甲士山本五十六就此碎尸于承平洋上空。
  1. Video
  2. ID                                       : 1
  3. Format                                   : AVC
  4. Format/Info                              : Advanced Video Codec
  5. Format profile                           : High@L4
  6. Format settings                          : CABAC / 4 Ref Frames
  7. Format settings, CABAC                   : Yes
  8. Format settings, Reference frames        : 4 frames
  9. Codec ID                                 : V_MPEG4/ISO/AVC
  10. Duration                                 : 2 h 10 min
  11. Bit rate mode                            : Variable
  12. Bit rate                                 : 11.7 Mb/s
  13. Maximum bit rate                         : 15.0 Mb/s
  14. Width                                    : 1 920 pixels
  15. Height                                   : 1 080 pixels
  16. Display aspect ratio                     : 16:9
  17. Frame rate mode                          : Constant
  18. Frame rate                               : 23.976 (24000/1001) FPS
  19. Color space                              : YUV
  20. Chroma subsampling                       : 4:2:0
  21. Bit depth                                : 8 bits
  22. Scan type                                : Progressive
  23. Bits/(Pixel*Frame)                       : 0.236
  24. Stream size                              : 10.7 GiB (99%)
  25. Writing library                          : x264 core 148 r2623 d5b2374
  26. Encoding settings                        : cabac=1 / ref=4 / deblock=1:-1:-1 / analyse=0x3:0x133 / me=umh / subme=9 / psy=1 / psy_rd=1.00:0.15 / mixed_ref=1 / me_range=24 / chroma_me=1 / trellis=2 / 8x8dct=1 / cqm=0 / deadzone=21,11 / fast_pskip=1 / chroma_qp_offset=-3 / threads=34 / lookahead_threads=5 / sliced_threads=0 / nr=150 / decimate=1 / interlaced=0 / bluray_compat=0 / constrained_intra=0 / bframes=8 / b_pyramid=2 / b_adapt=2 / b_bias=0 / direct=3 / weightb=1 / open_gop=0 / weightp=2 / keyint=120 / keyint_min=61 / scenecut=0 / intra_refresh=0 / rc_lookahead=120 / rc=crf / mbtree=1 / crf=18.0 / qcomp=0.60 / qpmin=0 / qpmax=69 / qpstep=4 / vbv_maxrate=15000 / vbv_bufsize=31250 / crf_max=0.0 / nal_hrd=vbr / filler=0 / ip_ratio=1.40 / aq=3:1.00
  27. Default                                  : Yes
  28. Forced                                   : No
  29. Color range                              : Limited
  30. Color primaries                          : BT.709
  31. Transfer characteristics                 : BT.709
  32. Matrix coefficients                      : BT.709

  33. Audio
  34. ID                                       : 2
  35. Format                                   : AAC LC
  36. Format/Info                              : Advanced Audio Codec Low Complexity
  37. Codec ID                                 : A_AAC-2
  38. Duration                                 : 2 h 10 min
  39. Bit rate                                 : 125 kb/s
  40. Channel(s)                               : 2 channels
  41. Channel layout                           : L R
  42. Sampling rate                            : 48.0 kHz
  43. Frame rate                               : 46.875 FPS (1024 SPF)
  44. Compression mode                         : Lossy
  45. Stream size                              : 117 MiB (1%)
  46. Language                                 : Japanese
  47. Default                                  : Yes
  48. Forced                                   : No

  49. Text
  50. ID                                       : 3
  51. Format                                   : UTF-8
  52. Codec ID                                 : S_TEXT/UTF8
  53. Codec ID/Info                            : UTF-8 Plain Text
  54. Duration                                 : 2 h 8 min
  55. Bit rate                                 : 46 b/s
  56. Count of elements                        : 983
  57. Stream size                              : 43.9 KiB (0%)
  58. Language                                 : English
  59. Default                                  : Yes
  60. Forced                                   : No
复制代码

山本五十六 Admiral.Yamamoto.1968.JAPANESE.1080p.AMZN.WEBRip.AAC2.0.x264-SbR 10.81GB-2.png 山本五十六 Admiral.Yamamoto.1968.JAPANESE.1080p.AMZN.WEBRip.AAC2.0.x264-SbR 10.81GB-3.png 山本五十六 Admiral.Yamamoto.1968.JAPANESE.1080p.AMZN.WEBRip.AAC2.0.x264-SbR 10.81GB-4.png







VIP会员免费任意下载本站所有资源!---点击开通
回复

使用道具 举报

懒得打字嘛,点击右侧快捷回复 【右侧内容,后台自定义】
您需要登录后才可以回帖 登录 | 立即注册

本版积分规则

QQ|Archiver|手机版|小黑屋| 中国高清网 |网站地图

GMT+8, 2019-11-22 02:29 , Processed in 0.274884 second(s), 37 queries .

Powered by HDchina X3.4

Copyright 2017-2019©HDchina.All right reserved

返回顶部 联系我们