查看: 22|回复: 0

[剧情片] 茶之味 The.Taste.of.Tea.2004.JAPANESE.1080p.AMZN.WEBRip.DD5.1.x264-SbR 10.85GB

[复制链接]

 成长值: 3230

级别:资源管理组

注册时间
2017-10-20
最后登录
2019-11-21
听众
1
收听
0
主题
87390
蓝光币
63614 枚
贡献
11749 点
发表于 2019-10-23 23:37:58 | 显示全部楼层 |阅读模式
茶之味 The.Taste.of.Tea.2004.JAPANESE.1080p.AMZN.WEBRip.DD5.1.x264-SbR 10.85GB-1.png

译  名 茶之味 / The Taste of Tea / 绿茶之香
片  名 茶の味
年  代 2004
产  地 日本
类  别 剧情 / 笑剧
语  言 日语
上映日期 2004-07-17
IMDb评分  7.7/10 from 5403 users
IMDb链接  https://www.imdb.com/title/tt0413893
豆瓣评分 8.2/10 from 5156 users
豆瓣链接 https://movie.douban.com/subject/1309079/
片  长 143分钟
导  演 石井克人
编  剧 石井克人
主  演 浅野忠信 Tadanobu Asano
       坂野真弥 Maya Banno
       佐藤贵广 Takahiro Sato
       手塚理美 Satomi Tezuka
       我修院达也 Tatsuya Gash?in
       三浦友和 Tomokazu Miura
       高桥平生 Issei Takahashi
       土屋安娜 Anna Tsuchiya


标  签 日本 | 日本电影 | 浅野忠信 | 茶の味 | 石井克人 | 文艺 | 土屋安娜 | 2004

简  介  

  春野一家人住在安好平和的小山村,他们的生活恬淡幸运,不外家属成员却各有各的懊恼。祖父(我修院達也 饰)性情怪僻,行为乖张,醉心于私动画的建造;父亲(三浦友和 饰)是一位驻家催眠治疗师,他专心工作,无暇他顾;妻子美子(手塚理美 饰)总算临时从育子的忙碌生活中摆脱出来,因而决议重拾餐桌卡的绘画工作。夫妻俩鲜妇交换,隔膜暗生;就读中妹的宗子阿一(佐藤貴広 饰)恋上新来的转校生,他盘桓犹豫,始终不敢表达;刚上小妹的女儿幸子(坂野真弥 饰)总以为自己的头颅在不竭变大,这个希奇的空想让她倍感困扰。
  不务正业的叔叔(浅野忠信 饰)从东京返来,为这个普通却又有些希奇的家庭吹进一丝生气……
  1. Video
  2. ID : 1
  3. Format : AVC
  4. Format/Info : Advanced Video Codec
  5. Format profile : High@L4
  6. Format settings : CABAC / 4 Ref Frames
  7. Format settings, CABAC : Yes
  8. Format settings, Reference frames : 4 frames
  9. Codec ID : V_MPEG4/ISO/AVC
  10. Duration : 2 h 23 min
  11. Bit rate mode : Variable
  12. Bit rate : 10.4 Mb/s
  13. Maximum bit rate : 15.0 Mb/s
  14. Width : 1 800 pixels
  15. Height : 1 080 pixels
  16. Display aspect ratio : 5:3
  17. Frame rate mode : Constant
  18. Frame rate : 23.976 (24000/1001) FPS
  19. Color space : YUV
  20. Chroma subsampling : 4:2:0
  21. Bit depth : 8 bits
  22. Scan type : Progressive
  23. Bits/(Pixel*Frame) : 0.223
  24. Stream size : 10.4 GiB (96%)
  25. Language : Japanese
  26. Default : Yes
  27. Forced : No
  28. Color range : Limited
  29. Color primaries : BT.709
  30. Transfer characteristics : BT.709
  31. Matrix coefficients : BT.709

  32. Audio
  33. ID : 2
  34. Format : AC-3
  35. Format/Info : Audio Coding 3
  36. Commercial name : Dolby Digital
  37. Codec ID : A_AC3
  38. Duration : 2 h 23 min
  39. Bit rate mode : Constant
  40. Bit rate : 448 kb/s
  41. Channel(s) : 6 channels
  42. Channel layout : L R C LFE Ls Rs
  43. Sampling rate : 48.0 kHz
  44. Frame rate : 31.250 FPS (1536 SPF)
  45. Bit depth : 16 bits
  46. Compression mode : Lossy
  47. Stream size : 460 MiB (4%)
  48. Language : Japanese
  49. Service kind : Complete Main
  50. Default : Yes
  51. Forced : No

  52. Text
  53. ID : 3
  54. Format : UTF-8
  55. Codec ID : S_TEXT/UTF8
  56. Codec ID/Info : UTF-8 Plain Text
  57. Duration : 2 h 20 min
  58. Bit rate : 28 b/s
  59. Count of elements : 1208
  60. Stream size : 29.4 KiB (0%)
  61. Title : English
  62. Language : English
  63. Default : Yes
  64. Forced : No

  65. Menu
  66. 00:00:00.000 : en:01. Hajime Breaks His Heart
  67. 00:04:54.127 : en:02. People in the Haruno Family
  68. 00:09:43.416 : en:03. The Story of Uncle Ayano
  69. 00:19:39.428 : en:04. Romanchi
  70. 00:23:13.225 : en:05. The Soba Noodle Shop Incident
  71. 00:26:02.978 : en:06. The Convenience Store Incident
  72. 00:27:42.744 : en:07. Why Are You a Triangle?
  73. 00:31:25.967 : en:08. Transfer Student Aoi
  74. 00:33:30.342 : en:09. Everyone's Annoyance
  75. 00:39:55.727 : en:10. Hajime's Excitment
  76. 00:47:57.792 : en:11. Shooting Star Guard and Yakuza
  77. 00:53:58.735 : en:12. Ikki Todoroki's Tragedy
  78. 00:57:47.047 : en:13. Ayano and Akira
  79. 01:05:21.668 : en:14. Morio's Dance
  80. 01:09:17.487 : en:15. A Birthday Present to Myself
  81. 01:15:09.922 : en:16. Nobuo's Hypnotism
  82. 01:23:52.236 : en:17. Hajime Joins with Go Club
  83. 01:33:45.703 : en:18. "Oh My Mountain..."
  84. 01:42:13.127 : en:19. A Moment Like a Dream
  85. 01:50:47.140 : en:20. "Super Big" First Preview
  86. 01:59:09.726 : en:21. Good-Bye, Grampa
  87. 02:03:43.791 : en:22. Gift From Grampa
  88. 02:10:30.781 : en:23. We Were All Watching Sunset
  89. 02:16:46.073 : en:24. Ending
复制代码

茶之味 The.Taste.of.Tea.2004.JAPANESE.1080p.AMZN.WEBRip.DD5.1.x264-SbR 10.85GB-2.png 茶之味 The.Taste.of.Tea.2004.JAPANESE.1080p.AMZN.WEBRip.DD5.1.x264-SbR 10.85GB-3.png 茶之味 The.Taste.of.Tea.2004.JAPANESE.1080p.AMZN.WEBRip.DD5.1.x264-SbR 10.85GB-4.png 茶之味 The.Taste.of.Tea.2004.JAPANESE.1080p.AMZN.WEBRip.DD5.1.x264-SbR 10.85GB-5.png 茶之味 The.Taste.of.Tea.2004.JAPANESE.1080p.AMZN.WEBRip.DD5.1.x264-SbR 10.85GB-6.png 茶之味 The.Taste.of.Tea.2004.JAPANESE.1080p.AMZN.WEBRip.DD5.1.x264-SbR 10.85GB-7.png







VIP会员免费任意下载本站所有资源!---点击开通
回复

使用道具 举报

懒得打字嘛,点击右侧快捷回复 【右侧内容,后台自定义】
您需要登录后才可以回帖 登录 | 立即注册

本版积分规则

QQ|Archiver|手机版|小黑屋| 中国高清网 |网站地图

GMT+8, 2019-11-22 03:32 , Processed in 0.240183 second(s), 37 queries .

Powered by HDchina X3.4

Copyright 2017-2019©HDchina.All right reserved

返回顶部 联系我们