查看: 55|回复: 0

[剧情片] 风起云涌/原色 Primary.Colors.1998.1080p.BluRay.REMUX.AVC.DTS-HD.MA.5.1-FGT 37.73GB

[复制链接]

 成长值: 3230

级别:资源管理组

注册时间
2017-10-20
最后登录
2019-11-21
听众
1
收听
0
主题
87390
蓝光币
63614 枚
贡献
11749 点
发表于 2019-10-23 23:36:23 | 显示全部楼层 |阅读模式
如火如荼/原色 Primary.Colors.1998.1080p.BluRay.REMUX.AVC.DTS-HD.MA.5.1-FGT 37.73GB-1.png

译  名 如火如荼 / 原色 / 白宫本质 / 这个总统真太滥
片  名 Primary Colors
年  代 1998
产  地 美国 / 法国 / 英国 / 德国 / 日本
类  别 剧情 / 笑剧
语  言 英语
上映日期 1998-03-20
IMDb评分  6.6/10 from 26311 users
IMDb链接  https://www.imdb.com/title/tt0119942
豆瓣评分 6.9/10 from 267 users
豆瓣链接 https://movie.douban.com/subject/1299686/
片  长 143 分钟
导  演 Mike Nichols
编  剧 Elaine May
主  演 John Travolta
       Emma Thompson
       Billy Bob Thornton
       Kathy Bates
       Adrian Lester
       Maura Tierney
       Larry Hagman


标  签 美国 | 政治 | 美国电影 | 1998 | JohnTravolta | 笑剧 | 剧情 | MikeNichols

简  介  

  杰克·史坦顿是南方的一个州长,他是个天生的政客,所做一切都服从于终极被选美国总统这一最高方针。在他那位能干的妻子的大力支持下,在1992年民主党总统争取战中,赢得了很多选民的喜爱,有人甚至拿他与肯尼迪相比。可是,时候一长,杰克私生活中的很多污点就表暴露来了:回避兵役,令妇女怀孕等等不但彩的事都被抖落出来,为了袒护这些丑闻,竞选小组利用了各种手段。这时,亨利·伯顿出现了。他是黑白混血儿,祖父是著名民权魁首,他本人很早就在官场摸爬滚打。全片以他的视角来看待竞选的全部进程。

获奖情况  

  第71届奥斯卡金像奖(1999)
  最好女配角(提名) 凯西·贝茨
  最好改编剧本(提名) 伊莲·梅
  1. Video
  2. ID                                       : 1
  3. Format                                   : AVC
  4. Format/Info                              : Advanced Video Codec
  5. Format profile                           : High@L4
  6. Format settings                          : CABAC / 2 Ref Frames
  7. Format settings, CABAC                   : Yes
  8. Format settings, Reference frames        : 2 frames
  9. Format settings, GOP                     : M=1, N=5
  10. Codec ID                                 : V_MPEG4/ISO/AVC
  11. Duration                                 : 2 h 23 min
  12. Bit rate mode                            : Variable
  13. Bit rate                                 : 33.6 Mb/s
  14. Maximum bit rate                         : 38.2 Mb/s
  15. Width                                    : 1 920 pixels
  16. Height                                   : 1 080 pixels
  17. Display aspect ratio                     : 16:9
  18. Frame rate mode                          : Constant
  19. Frame rate                               : 23.976 (24000/1001) FPS
  20. Color space                              : YUV
  21. Chroma subsampling                       : 4:2:0
  22. Bit depth                                : 8 bits
  23. Scan type                                : Progressive
  24. Bits/(Pixel*Frame)                       : 0.677
  25. Stream size                              : 33.7 GiB (89%)
  26. Title                                    : Primary.Colors.1998.1080p.BluRay.REMUX.AVC.DTS-HD.MA.5.1-FGT
  27. Language                                 : English
  28. Default                                  : No
  29. Forced                                   : No

  30. Audio
  31. ID                                       : 2
  32. Format                                   : DTS XLL
  33. Format/Info                              : Digital Theater Systems
  34. Commercial name                          : DTS-HD Master Audio
  35. Codec ID                                 : A_DTS
  36. Duration                                 : 2 h 23 min
  37. Bit rate mode                            : Variable
  38. Bit rate                                 : 4 052 kb/s
  39. Channel(s)                               : 6 channels
  40. Channel layout                           : C L R Ls Rs LFE
  41. Sampling rate                            : 48.0 kHz
  42. Frame rate                               : 93.750 FPS (512 SPF)
  43. Bit depth                                : 24 bits
  44. Compression mode                         : Lossless
  45. Stream size                              : 4.05 GiB (11%)
  46. Title                                    : Primary.Colors.1998.1080p.BluRay.REMUX.AVC.DTS-HD.MA.5.1-FGT
  47. Language                                 : English
  48. Default                                  : Yes
  49. Forced                                   : No

  50. Text
  51. ID                                       : 3
  52. Format                                   : PGS
  53. Muxing mode                              : zlib
  54. Codec ID                                 : S_HDMV/PGS
  55. Codec ID/Info                            : Picture based subtitle format used on BDs/HD-DVDs
  56. Duration                                 : 2 h 15 min
  57. Bit rate                                 : 66.9 kb/s
  58. Count of elements                        : 4938
  59. Stream size                              : 64.8 MiB (0%)
  60. Title                                    : English-PGS
  61. Language                                 : English
  62. Default                                  : Yes
  63. Forced                                   : No

  64. Menu
  65. 00:00:00.000                             : en:Chapter 01
  66. 00:10:00.725                             : en:Chapter 02
  67. 00:20:01.408                             : en:Chapter 03
  68. 00:30:02.801                             : en:Chapter 04
  69. 00:40:03.317                             : en:Chapter 05
  70. 00:50:03.208                             : en:Chapter 06
  71. 01:00:04.100                             : en:Chapter 07
  72. 01:10:04.658                             : en:Chapter 08
  73. 01:20:05.634                             : en:Chapter 09
  74. 01:30:05.733                             : en:Chapter 10
  75. 01:40:06.166                             : en:Chapter 11
  76. 01:50:06.850                             : en:Chapter 12
  77. 02:00:07.867                             : en:Chapter 13
  78. 02:10:07.925                             : en:Chapter 14
  79. 02:20:08.691                             : en:Chapter 15
复制代码

如火如荼/原色 Primary.Colors.1998.1080p.BluRay.REMUX.AVC.DTS-HD.MA.5.1-FGT 37.73GB-2.png 如火如荼/原色 Primary.Colors.1998.1080p.BluRay.REMUX.AVC.DTS-HD.MA.5.1-FGT 37.73GB-3.png 如火如荼/原色 Primary.Colors.1998.1080p.BluRay.REMUX.AVC.DTS-HD.MA.5.1-FGT 37.73GB-4.png







VIP会员免费任意下载本站所有资源!---点击开通
回复

使用道具 举报

懒得打字嘛,点击右侧快捷回复 【右侧内容,后台自定义】
您需要登录后才可以回帖 登录 | 立即注册

本版积分规则

QQ|Archiver|手机版|小黑屋| 中国高清网 |网站地图

GMT+8, 2019-11-22 02:39 , Processed in 0.248212 second(s), 37 queries .

Powered by HDchina X3.4

Copyright 2017-2019©HDchina.All right reserved

返回顶部 联系我们