查看: 127|回复: 2

[喜剧片] 美国梦/残酷新丁 American.Dreamz.2006.720p.BluRay.x264-BRMP 5.47GB

[复制链接]

 成长值: 6090

级别:资源管理组

注册时间
2017-10-20
最后登录
2020-7-12
听众
1
收听
0
主题
97892
蓝光币
170046 枚
贡献
21715 点
发表于 2019-10-23 23:35:14 | 显示全部楼层 |阅读模式
美国梦/残暴新丁 American.Dreamz.2006.720p.BluRay.x264-BRMP 5.47GB-1.png / V5 x% M1 ~% G# x

( |. |2 |! u. X4 y译  名 美国梦 / 残暴新丁 / 追求美国梦/ e# Y' b* Y8 c5 c* H
片  名 American Dreamz# G. C* a+ ^0 j. I' ~
年  代 20064 o& @) u  L! L/ W+ n2 d8 t' U* R
产  地 美国
9 z( U1 _1 R% u3 U% E7 \类  别 笑剧 / 音乐
# e% C, K* c7 ~. E语  言 英语
! w3 J+ g/ u+ [! ^" ^上映日期 2006-04-20(美国)) d. Q) e0 s# j2 p
IMDb评分  5.4/10 from 23778 users
" ^% V* H& @/ sIMDb链接  https://www.imdb.com/title/tt0465142
7 p/ |" [& a* ~6 N豆瓣评分 6.4/10 from 1740 users( B) ?9 k# M) l$ L* }4 }& p3 v
豆瓣链接 https://movie.douban.com/subject/1755972/* V# r+ W, u2 ?+ u  s& g; q
片  长 107 分钟
8 S+ ^" p" D( v! |: Y$ M8 ]+ u导  演 保罗·韦兹 Paul Weitz
( W/ h2 m9 Z! [$ N" ?编  剧 保罗·韦兹 Paul Weitz" B3 V9 ?: |, H
主  演 休·格兰特 Hugh Grant
- C+ S, O+ S  O5 x* F" X       丹尼斯·奎德 Dennis Quaid  d7 q3 e' A5 C( E0 d# n
       曼迪·摩尔 Mandy Moore
9 I, F) z5 n* v: b" j; r% S7 Q       威廉·达福 Willem Dafoe; P1 g# g& L, b' k* `0 x
       克里斯·克莱因 Chris Klein. l2 i# {7 b6 F) \! L' y
       詹妮佛·库里奇 Jennifer Coolidge
; A$ ^' ]6 r% r6 s8 R       Sam Golzari4 V8 g# r! X6 J  k+ ?1 g" }6 ~5 F
       马西娅·盖伊·哈登 Marcia Gay Harden
% h" G% Y( }* w1 ]+ ?  [2 T       塞斯·梅耶斯 Seth Meyers
& z; K* N# E# o* U8 Z  }8 d       约翰·赵 John Cho1 Y: `, F5 w. C
       朱迪·格雷尔 Judy Greer
0 \' y- w* c/ H9 s       伯纳德·怀特 Bernard White
5 K9 O! @1 n. S" W- w' ~       Tony Yalda
1 |7 L; z! I6 s+ m       瑙伦·德沃芙 Noureen DeWulf: z  I+ J1 G0 v% ^% c
       索瑞·安达斯鲁 Shohreh Aghdashloo
+ ?9 [% ]7 ^. |$ j       Jay Harik% a) k% h1 o1 H7 f: G" i
       亚当·布斯奇 Adam Busch+ M- Q" O: ~6 Z/ A9 M! D5 D/ b
       哈斯·塞雷曼 Haaz Sleiman# ]4 x; _. X* O3 Q  |; {
       Nick Schutt0 m# t& H7 ~! i/ X
       Beau Holden( L' Z7 F# P" v, L
       玛丽·谢尔顿 Marley Shelton
8 w# a' n7 x# Y0 c       劳伦斯·普莱斯曼 Lawrence Pressman
* h% U  X4 {' R, S       阿尔迪斯·霍吉 Aldis Hodge
4 _5 o) @0 }* M8 R5 o% ?       冀朝理 Chao Li Chi
( ^# ^# z  d* M4 U+ Y6 K! a; x. o% `       安德鲁·迪沃夫 Andrew Divoff
% j; G* Z4 @8 Z! V4 s1 `       James Gleason
# N$ I( i( p  w       迈克尔·D·罗伯茨 Michael D. Roberts7 w! x  y4 r- @5 B! z2 V% d
       Kevin R. Kelly% ^! P4 y5 D; n( a1 U* Z
       Trey Parker& v/ r4 l6 ?0 J2 X% J- s# l
       Sarah Culberson
. p9 ?3 h0 P! r: y. H' l       佩瑞·里维斯 Perrey Reeves
  ^* ]: z% R. I9 b* ^: a       卡门·伊莱克特拉 Carmen Electra
7 T2 s1 `/ V7 a* h% w6 l       杰夫·鲁斯 Jeffrey Ross, x2 Z, n1 e, ~  g0 o# T+ J( D
       Adrian Zaw+ _7 q; \4 D! n) B& F
       Fumi Desalu-Vold
2 S$ u+ Q! i6 w       Megan Evanich
7 W$ @( ?8 V. ]" q8 a       Dave Huber0 z# F; G. E( Z  |
       Amr Metwally
0 V6 T3 B; S# G9 _       Neal Orion  m- h5 O* K, z# V
       Neil Patil
) c3 s  e4 u6 E9 |0 c* u% k; u0 L       Lester G. Reynolds8 y) _2 i5 U+ @3 n+ M; [) D$ M* ]" v
       特伦斯·罗斯摩尔 Terence Rosemore0 }: c4 ~  V& [0 E! m- q
& Y* p% p, h1 m

  l* u1 Z& j, o& `0 @1 _) _, F- u标  签 美国 | 笑剧 | HughGrant | 美国电影 | 2006 | 政治 | 剧情 | 美国梦) C( Q9 {8 D  \, x/ I" w

5 v& k+ j9 Q3 k简  介    _7 B6 w9 a5 n4 g6 h. z$ f

  `& e7 e  |  |" O9 X  这是斯塔顿总统(丹尼斯·奎德 Dennis Quaid 饰)这几年来头一遭掀开报纸,没想到,关于自己的负面消息以排山倒海之势劈面而来,大受冲击的斯塔顿顿时堕入了闷闷不乐当中,行为举止也日渐怪异。作为斯塔顿的得力助手,萨特(威廉·达福 Willem Dafoe 饰)感应非常焦虑。竞选在即,不竭下跌的支持率让他所支持的这位竞选人离连任的方针越来越远。
3 b* ?6 ?: c( l; }6 B- F  为了力挽狂澜,无法的萨特只得将斯塔顿搞到了今朝最火爆的真人秀“美国梦”的特约评审席上。经过层层提拔,奥默(Sam Golzari 饰)和莎莉(曼迪·摩尔 Mandy Moore 饰)两名选手街在了斯塔顿的眼前,而他们其中之一,居然是危险的可骇份子。谁将得胜,决议权在斯塔顿的手中,他的挑选将间接关系到国家的安危。
0 f7 Y3 I. a+ w
  1. Video
    3 g& w1 |! B- e; J8 x4 ~3 H! J
  2. ID                                       : 1
    5 V; I" F1 ?! y: z) y3 _8 S6 N
  3. Format                                   : AVC8 O' L' o& b( P6 T! X0 h
  4. Format/Info                              : Advanced Video Codec
    # k" _" ^2 B% B9 ]5 E# n5 n3 n
  5. Format profile                           : High@L4
    & U. ]- f. h6 a6 D5 H! p- {
  6. Format settings                          : CABAC / 5 Ref Frames$ [% }0 S3 h8 R6 ~& \
  7. Format settings, CABAC                   : Yes, o. d' i6 j. R0 \
  8. Format settings, Reference frames        : 5 frames3 i8 x- W, c- U; }% p
  9. Codec ID                                 : V_MPEG4/ISO/AVC& U' R+ q8 b' m* d! |; p) ^& o4 p
  10. Duration                                 : 1 h 47 min* m9 r- C; @$ h6 o9 A0 a
  11. Bit rate                                 : 5 787 kb/s: J" L9 `0 B. n& |
  12. Width                                    : 1 280 pixels
    . w2 ]$ z( x, |7 l$ }
  13. Height                                   : 696 pixels
    7 p( E4 r: t& C) |
  14. Display aspect ratio                     : 1.85:1$ W: N8 B9 y! g* S$ V
  15. Frame rate mode                          : Constant4 X" V6 K) i! H4 g
  16. Frame rate                               : 23.976 (24000/1001) FPS
    ! a, L( o$ [8 D
  17. Color space                              : YUV
    9 M, C/ U# u& y
  18. Chroma subsampling                       : 4:2:09 E" P) Q" y+ A
  19. Bit depth                                : 8 bits
    0 {5 L* K+ Z' p1 c" Z
  20. Scan type                                : Progressive
    . o& ^! k' ]  }) X
  21. Bits/(Pixel*Frame)                       : 0.271
    , U: F8 J1 P, `  q$ ^
  22. Stream size                              : 4.33 GiB (79%)" G# m5 Q6 O4 M; u; v$ {0 h$ G' {
  23. Writing library                          : x264 core 157 r2969 d4099dd
    ( s+ ]$ E, q! D8 N# A+ s) X" O0 r4 M- K
  24. Encoding settings                        : cabac=1 / ref=5 / deblock=1:0:0 / analyse=0x3:0x133 / me=umh / subme=7 / psy=1 / psy_rd=1.00:0.00 / mixed_ref=1 / me_range=16 / chroma_me=1 / trellis=1 / 8x8dct=1 / cqm=0 / deadzone=21,11 / fast_pskip=0 / chroma_qp_offset=-2 / threads=18 / lookahead_threads=3 / sliced_threads=0 / nr=0 / decimate=1 / interlaced=0 / bluray_compat=0 / constrained_intra=0 / bframes=3 / b_pyramid=2 / b_adapt=1 / b_bias=0 / direct=1 / weightb=1 / open_gop=0 / weightp=2 / keyint=240 / keyint_min=23 / scenecut=40 / intra_refresh=0 / rc_lookahead=40 / rc=2pass / mbtree=1 / bitrate=5787 / ratetol=1.0 / qcomp=0.60 / qpmin=10 / qpmax=51 / qpstep=4 / cplxblur=20.0 / qblur=0.5 / ip_ratio=1.40 / aq=1:1.00
    " p* c" u) `. e/ b: k
  25. Default                                  : Yes! |8 H( g1 d' N' j* `
  26. Forced                                   : No/ ?/ S0 E" Y9 i4 \- a$ y
  27. ( B: f+ l) v. L
  28. Audio8 Q/ E6 M. \# ?8 j$ W% X. r
  29. ID                                       : 24 {+ `2 \8 `. I8 _2 u5 ~2 i
  30. Format                                   : DTS/ j0 Y2 H3 V8 c8 b5 t/ S
  31. Format/Info                              : Digital Theater Systems( D7 X( Y+ c' J$ c' ^9 s' s- s/ |
  32. Codec ID                                 : A_DTS8 ?# B; V. X- Y& R8 u2 G% G& C; @
  33. Duration                                 : 1 h 47 min2 f% h0 d! u( j: Q& v
  34. Bit rate mode                            : Constant
    2 ~" l7 z! m$ p/ Z
  35. Bit rate                                 : 1 509 kb/s* h( ]+ l7 Z. F- h
  36. Channel(s)                               : 6 channels3 C) A1 h0 V2 F) b' j2 P6 \; W
  37. Channel layout                           : C L R Ls Rs LFE
    . [% M' R, f- H0 Z
  38. Sampling rate                            : 48.0 kHz" s- b; `/ e& l) G
  39. Frame rate                               : 93.750 FPS (512 SPF)
      i8 |! u6 \. \5 E
  40. Bit depth                                : 24 bits
    ! W- z4 v# t: G8 E! b
  41. Compression mode                         : Lossy
      g" a& z2 O! F+ z0 S2 S% c
  42. Stream size                              : 1.13 GiB (21%)  c( F9 V2 M' r9 |
  43. Language                                 : English! E: d, b/ o* H( m
  44. Default                                  : Yes0 G4 q  j6 O9 l6 `
  45. Forced                                   : No" e9 s! S. @: N( [, j
  46. 5 K8 ?' k1 P$ P
  47. Text
    ' V0 ^* s6 [0 f" [
  48. ID                                       : 36 m0 c! n6 b  c; f- t
  49. Format                                   : UTF-85 T& {  g* t- B: A+ J" `! [' R9 e& q
  50. Codec ID                                 : S_TEXT/UTF82 X. j! j5 _4 a" u1 q
  51. Codec ID/Info                            : UTF-8 Plain Text
    6 V9 M9 `! j5 K1 o, b/ ?9 U" I# k
  52. Duration                                 : 1 h 45 min) ^1 h1 V; g, Y2 v0 B) I
  53. Bit rate                                 : 75 b/s
    % d8 {5 ~$ a/ D) P3 `1 i
  54. Count of elements                        : 1697* N, i- j- e6 n& R9 z) M9 ~  q; w( r
  55. Stream size                              : 58.6 KiB (0%)6 F3 U' W2 @4 {1 z' M' P9 l7 l
  56. Language                                 : English
    0 l/ k) b5 u: Q- x
  57. Default                                  : Yes) r2 T5 S  x# n
  58. Forced                                   : No
    ' t( b/ K1 G, Z) u+ k
  59. , a$ o3 B$ M- x& h. r' V/ a
  60. Menu
    : r; d9 ^  R2 [( P4 l; [
  61. 00:00:00.000                             : en:Chapter 01
    / I6 k6 B% q4 R! v' \3 ~; {& |
  62. 00:10:01.226                             : en:Chapter 02
    , R0 ^: F* \0 H0 G! x  R
  63. 00:20:01.367                             : en:Chapter 03
    , i, o. P) V+ g6 }6 b0 w2 {
  64. 00:30:02.175                             : en:Chapter 04
    5 j" S& k# ]. L- J# M
  65. 00:40:02.859                             : en:Chapter 05
    # v5 S8 Q0 t* I5 S- T4 {
  66. 00:50:03.834                             : en:Chapter 06
    # A2 s0 L( @0 A7 K6 A8 S
  67. 01:01:04.578                             : en:Chapter 07; C8 j! v% {8 a. w5 l
  68. 01:10:04.367                             : en:Chapter 08
    , e5 A- x- Q; T# w+ m5 Y& C' L. i2 i
  69. 01:20:05.175                             : en:Chapter 09- S* U/ s6 J+ ~
  70. 01:30:06.359                             : en:Chapter 10
    % B* T$ H" m! k  g% T* b
  71. 01:40:06.584                             : en:Chapter 11
复制代码
- _5 V; d: ^* y, A- ?9 W
美国梦/残暴新丁 American.Dreamz.2006.720p.BluRay.x264-BRMP 5.47GB-2.png
' `$ S) F. V! m/ U
. O8 y% T/ k" E( [5 p3 h; H! \1 c  h/ @  s% c% k

# c/ g% e6 y, ~' C/ T7 {. m! Y( K4 A" h6 D: O, y0 W
9 g8 Y0 m: L' @. A0 ~2 |
; e2 K5 H! a, K4 q
0 [, |# Y& S: s* a6 n# Z) e
回复

使用道具 举报

级别:功成名就 Lv.9

注册时间
2019-4-24
最后登录
2020-7-7
听众
15
收听
0
主题
0
蓝光币
562 枚
贡献
0 点
发表于 2019-10-24 08:49:04 | 显示全部楼层
楼主发贴辛苦了,谢谢楼主分享!我觉得中国高清电影网是注册对了!
回复

使用道具 举报

级别:领衔主演 Lv.6

注册时间
2018-2-26
最后登录
2020-7-9
听众
18
收听
0
主题
0
蓝光币
288 枚
贡献
0 点
发表于 2019-10-24 09:08:53 | 显示全部楼层
% v+ ^+ l, S7 F$ ^' o& i
这东西我收了!谢谢楼主!中国高清电影网真好!
回复

使用道具 举报

懒得打字嘛,点击右侧快捷回复 【右侧内容,后台自定义】
您需要登录后才可以回帖 登录 | 立即注册

本版积分规则

Archiver|手机版|小黑屋| 中国高清网 ( ICP备17007870号-2 ) |网站地图 

GMT+8, 2020-7-12 16:28 , Processed in 0.177941 second(s), 39 queries .

Powered by HDchina X3.4

Copyright 2017-2019©HDchina.All right reserved

返回顶部 联系我们