查看: 52|回复: 2

[喜剧片] 美国梦/残酷新丁 American.Dreamz.2006.720p.BluRay.x264-BRMP 5.47GB

[复制链接]

 成长值: 3230

级别:资源管理组

注册时间
2017-10-20
最后登录
2019-11-21
听众
1
收听
0
主题
87390
蓝光币
63614 枚
贡献
11749 点
发表于 2019-10-23 23:35:14 | 显示全部楼层 |阅读模式
美国梦/残暴新丁 American.Dreamz.2006.720p.BluRay.x264-BRMP 5.47GB-1.png
. H( w; `: h& F) l& }6 |) z* v3 r+ E" ]8 F& q' c8 H
译  名 美国梦 / 残暴新丁 / 追求美国梦% e& V5 X5 u7 d. C7 J- }
片  名 American Dreamz) V( Z$ t+ V& j- N( I
年  代 2006+ z9 @1 y5 }( |
产  地 美国8 ?$ m; s: k0 O* h
类  别 笑剧 / 音乐
! l! a3 S) E8 G) O4 p* P语  言 英语% C; w' Q% v) Y& N- V
上映日期 2006-04-20(美国)8 L& A! a/ p0 [, z$ O
IMDb评分  5.4/10 from 23778 users1 }0 o. D# a5 ^) g& I. j
IMDb链接  https://www.imdb.com/title/tt0465142: f9 z1 s1 C+ f# Y
豆瓣评分 6.4/10 from 1740 users
( V1 v: k9 B8 R" D1 T$ C9 q豆瓣链接 https://movie.douban.com/subject/1755972/
9 w! j% Y9 T8 e& H0 z9 _% x片  长 107 分钟8 V" s" @8 |6 Q) R; I. k3 @! N" }
导  演 保罗·韦兹 Paul Weitz( Y  y6 o/ |% E6 a) e" v! H
编  剧 保罗·韦兹 Paul Weitz
! i( l" _" u# h主  演 休·格兰特 Hugh Grant
2 N0 X& F2 P$ N+ Q% u. i       丹尼斯·奎德 Dennis Quaid
/ O9 c. r8 P& f9 S       曼迪·摩尔 Mandy Moore
% E; ?# G5 d1 i- ^- e9 h       威廉·达福 Willem Dafoe
' k  T2 J$ u, M1 i& O       克里斯·克莱因 Chris Klein) H3 G: ~3 n- h8 i. h
       詹妮佛·库里奇 Jennifer Coolidge5 u6 F/ X/ K3 i& C, E5 J2 t0 u
       Sam Golzari3 C2 m" z% `/ G
       马西娅·盖伊·哈登 Marcia Gay Harden
# D3 N+ R: J/ O% A* f/ Q7 a       塞斯·梅耶斯 Seth Meyers
' j5 J- X% z$ J- j       约翰·赵 John Cho
4 V5 t' a) P' K& S% u8 i       朱迪·格雷尔 Judy Greer# }, V  ^7 O3 I) n' q
       伯纳德·怀特 Bernard White
2 N) E2 q; g! Y$ A( h. p7 @2 o       Tony Yalda
; u- P- f) j* P3 ~4 K$ [, _       瑙伦·德沃芙 Noureen DeWulf
$ H- o+ i8 M4 y( q! w       索瑞·安达斯鲁 Shohreh Aghdashloo
7 K8 V5 O/ D0 W+ ~; i       Jay Harik$ @& [! h0 s1 [' ~& Y
       亚当·布斯奇 Adam Busch; Z( a- F# o4 [* Z
       哈斯·塞雷曼 Haaz Sleiman
3 x' x! h: K& M4 l, d       Nick Schutt5 k& j8 g5 ?; M: _- z  ?( q6 P
       Beau Holden( Y* S, V) U; f
       玛丽·谢尔顿 Marley Shelton8 d6 X& _  C1 ]+ o2 A: h- i& H
       劳伦斯·普莱斯曼 Lawrence Pressman5 P0 B, ]+ n, l# W+ \+ e( X& N
       阿尔迪斯·霍吉 Aldis Hodge
6 O/ d& j) R/ m+ G# c       冀朝理 Chao Li Chi
9 l; t, p9 ^3 p8 l; @0 }$ F' V       安德鲁·迪沃夫 Andrew Divoff
1 h8 Q' @  V8 }. t6 d; }       James Gleason
& [! ?; g0 C) ?       迈克尔·D·罗伯茨 Michael D. Roberts- J, d6 x/ a0 `$ s4 x
       Kevin R. Kelly
1 U/ U. x5 g0 p+ D0 |0 Q       Trey Parker' o2 g9 }# N; \; }3 j3 n
       Sarah Culberson) o9 B, r4 i: t7 W. f
       佩瑞·里维斯 Perrey Reeves
! ~* P/ U6 {8 z/ X       卡门·伊莱克特拉 Carmen Electra9 U" v* q0 x" N5 {; V
       杰夫·鲁斯 Jeffrey Ross- t! x* G+ _; e6 m  B$ R2 t
       Adrian Zaw/ R9 g2 }7 X0 K6 U6 L& R
       Fumi Desalu-Vold
$ e9 c  W  w1 U4 L+ A       Megan Evanich" w# o  ~6 v' Q6 `: V* e1 a9 ^3 W) W
       Dave Huber! r' @6 L  s! K% a
       Amr Metwally
3 u5 |. _0 Z  |/ R' |       Neal Orion+ I4 M; f5 u- g; u, F) I9 w4 c( X' z
       Neil Patil7 \3 q. R0 i1 m  g
       Lester G. Reynolds
0 s* f5 R% E* P! H9 X1 C- ~# q, }       特伦斯·罗斯摩尔 Terence Rosemore
( X! O. a: Y, P: t8 I# E2 w9 a
! [; e+ T: C8 U/ Q' t$ x! g: c0 i8 L+ O2 ^9 P* a4 ^# c6 ?' [; T
标  签 美国 | 笑剧 | HughGrant | 美国电影 | 2006 | 政治 | 剧情 | 美国梦7 D, D5 o! H$ v* q! h0 ]' X: x

9 I3 H% Q4 d5 m4 E  S5 P简  介  . G* c: i+ ?  W2 z
7 _' {8 q" p* C9 J
  这是斯塔顿总统(丹尼斯·奎德 Dennis Quaid 饰)这几年来头一遭掀开报纸,没想到,关于自己的负面消息以排山倒海之势劈面而来,大受冲击的斯塔顿顿时堕入了闷闷不乐当中,行为举止也日渐怪异。作为斯塔顿的得力助手,萨特(威廉·达福 Willem Dafoe 饰)感应非常焦虑。竞选在即,不竭下跌的支持率让他所支持的这位竞选人离连任的方针越来越远。5 D6 q# Z$ \0 j+ R
  为了力挽狂澜,无法的萨特只得将斯塔顿搞到了今朝最火爆的真人秀“美国梦”的特约评审席上。经过层层提拔,奥默(Sam Golzari 饰)和莎莉(曼迪·摩尔 Mandy Moore 饰)两名选手街在了斯塔顿的眼前,而他们其中之一,居然是危险的可骇份子。谁将得胜,决议权在斯塔顿的手中,他的挑选将间接关系到国家的安危。
9 g$ |+ u# d* w
  1. Video
    4 h& a4 b, r) C$ }: \
  2. ID                                       : 1
    + b9 _! J  |' X' [0 X- q
  3. Format                                   : AVC1 K' j% a4 r' M% v) r8 \5 H
  4. Format/Info                              : Advanced Video Codec- W# K( m0 v, a& _. k1 s
  5. Format profile                           : High@L4' |! c9 X9 l6 L  N! A$ G6 q
  6. Format settings                          : CABAC / 5 Ref Frames
    3 k' m& \) \1 `, x$ B5 \
  7. Format settings, CABAC                   : Yes  l2 ?* U& u7 s3 \: I, Q
  8. Format settings, Reference frames        : 5 frames8 v% f: J% W: c
  9. Codec ID                                 : V_MPEG4/ISO/AVC
    ( ?4 a4 K( \& \4 u. ]' z. C
  10. Duration                                 : 1 h 47 min. P+ g4 n3 ~$ G4 Y7 U% z0 Q
  11. Bit rate                                 : 5 787 kb/s
    0 t4 B- c2 B* G* Y5 e( B
  12. Width                                    : 1 280 pixels/ G5 T  ]' W1 {8 }  T4 s
  13. Height                                   : 696 pixels
    : {* _3 n4 ?$ _8 |- J5 h+ z
  14. Display aspect ratio                     : 1.85:1  w/ W& f0 R& I9 `; W
  15. Frame rate mode                          : Constant
    , I& r, {2 b, y( m0 ]: f4 I( ~) N4 u1 Q
  16. Frame rate                               : 23.976 (24000/1001) FPS6 P/ v1 d( S# Z- Z
  17. Color space                              : YUV
    + _: l7 \% m7 p' U9 O4 l+ S4 |. T
  18. Chroma subsampling                       : 4:2:0
    1 s) f4 u" W8 }( \8 y1 ?0 _# |
  19. Bit depth                                : 8 bits8 j$ i- H# v" G; H5 C+ O
  20. Scan type                                : Progressive" v: Z- g+ W* S  t, s! m" r, \
  21. Bits/(Pixel*Frame)                       : 0.271
    / W, D, Y$ E& m& O6 C3 \  t% I
  22. Stream size                              : 4.33 GiB (79%)& h3 ]. ^5 h/ u% W' W% F- T8 ], R
  23. Writing library                          : x264 core 157 r2969 d4099dd/ i% h( ?' V2 g5 H8 d7 b
  24. Encoding settings                        : cabac=1 / ref=5 / deblock=1:0:0 / analyse=0x3:0x133 / me=umh / subme=7 / psy=1 / psy_rd=1.00:0.00 / mixed_ref=1 / me_range=16 / chroma_me=1 / trellis=1 / 8x8dct=1 / cqm=0 / deadzone=21,11 / fast_pskip=0 / chroma_qp_offset=-2 / threads=18 / lookahead_threads=3 / sliced_threads=0 / nr=0 / decimate=1 / interlaced=0 / bluray_compat=0 / constrained_intra=0 / bframes=3 / b_pyramid=2 / b_adapt=1 / b_bias=0 / direct=1 / weightb=1 / open_gop=0 / weightp=2 / keyint=240 / keyint_min=23 / scenecut=40 / intra_refresh=0 / rc_lookahead=40 / rc=2pass / mbtree=1 / bitrate=5787 / ratetol=1.0 / qcomp=0.60 / qpmin=10 / qpmax=51 / qpstep=4 / cplxblur=20.0 / qblur=0.5 / ip_ratio=1.40 / aq=1:1.00, W( c7 ]; k* @; p7 T
  25. Default                                  : Yes
    , Q7 ~0 ]- S; P8 A
  26. Forced                                   : No7 i* W) D$ k9 W

  27. 3 G( B' A. g7 b% ~. @, l3 ~0 t9 G/ E
  28. Audio
    ' E, K. R2 N$ L% g8 M5 a' ^
  29. ID                                       : 2
      s+ O# i6 s+ H+ H  G- u
  30. Format                                   : DTS
    4 b. y6 b) V- l' K
  31. Format/Info                              : Digital Theater Systems3 L% d  x, X* o; ?3 v
  32. Codec ID                                 : A_DTS$ E0 u* H' ~! u' S% e$ L3 ~
  33. Duration                                 : 1 h 47 min
    $ d  L: z7 X' s5 ]6 o. O3 Q
  34. Bit rate mode                            : Constant' M% J& N" Q- x. L* b
  35. Bit rate                                 : 1 509 kb/s
    + f8 R. Q; S! a' Q: \4 d" z1 ^
  36. Channel(s)                               : 6 channels/ u  U4 m6 I# T+ j% ~- I7 y
  37. Channel layout                           : C L R Ls Rs LFE4 v' O6 ]4 v3 a' D7 M
  38. Sampling rate                            : 48.0 kHz
      [$ p9 l9 y  P1 O& l# R* I
  39. Frame rate                               : 93.750 FPS (512 SPF)5 c4 G* Q- [" h# C( K
  40. Bit depth                                : 24 bits
    5 i  `+ S0 \7 G& ]) v
  41. Compression mode                         : Lossy
    $ d, C; u+ s0 j* \& l
  42. Stream size                              : 1.13 GiB (21%)
    : \2 C8 ?) D% r
  43. Language                                 : English
    9 I9 c) h4 B1 x
  44. Default                                  : Yes" \+ K# [; ]8 {8 t
  45. Forced                                   : No
    , J- |" D7 Q& O; ^+ F
  46. - m# V  ^- W* E
  47. Text
    & A+ O3 J* v( U) R
  48. ID                                       : 3
    5 Z' h/ q( u% a& H! Z, V* n4 o
  49. Format                                   : UTF-8/ v" C1 j; |9 ?2 @- u* m) p
  50. Codec ID                                 : S_TEXT/UTF8
    : B( ]+ j' M0 B& a. E9 e) \$ y4 H4 j7 {
  51. Codec ID/Info                            : UTF-8 Plain Text
    ; ~1 @* ]4 l* }2 P2 d0 W( {
  52. Duration                                 : 1 h 45 min3 v4 a+ P7 e; ~, F* F0 c0 \
  53. Bit rate                                 : 75 b/s" q1 C5 [, w% T" j6 E* v
  54. Count of elements                        : 1697! [4 `2 v, ^) h$ J+ c" t
  55. Stream size                              : 58.6 KiB (0%)
    " K: h7 |& `# o# H$ S$ X- x
  56. Language                                 : English  T; Z% ]6 a* F( Q8 B! T
  57. Default                                  : Yes. Q- [3 h5 Y- l2 E" I
  58. Forced                                   : No) L. N0 M( [- k+ s6 g) ^

  59. # Q6 h* Z) x8 T8 K
  60. Menu; C& p: s2 O. b2 F3 m( g
  61. 00:00:00.000                             : en:Chapter 01
    7 n- g$ ^' B$ s5 c
  62. 00:10:01.226                             : en:Chapter 02
    6 b- C0 P- K& k' W/ U
  63. 00:20:01.367                             : en:Chapter 03
    4 b; d8 b3 j3 q
  64. 00:30:02.175                             : en:Chapter 046 h* M  A( W" L; [
  65. 00:40:02.859                             : en:Chapter 05
      ^6 z) `* y" j- Z/ y7 n
  66. 00:50:03.834                             : en:Chapter 06
    , Q' `4 R0 e! b6 y$ g
  67. 01:01:04.578                             : en:Chapter 07
    1 P4 f4 L) `  k
  68. 01:10:04.367                             : en:Chapter 08: y% u% I' y/ W5 o5 v5 u
  69. 01:20:05.175                             : en:Chapter 09% ?8 N6 S9 u3 N/ `4 y
  70. 01:30:06.359                             : en:Chapter 10% F7 `" w% H! M9 L& [0 [9 C
  71. 01:40:06.584                             : en:Chapter 11
复制代码

& N& q( {9 E7 R5 r2 Y' `" j9 |/ \ 美国梦/残暴新丁 American.Dreamz.2006.720p.BluRay.x264-BRMP 5.47GB-2.png $ ?/ U( o2 [% u$ ]. x
' g6 n) U" T4 Y  |. K

! s  C' E" c* F% h' K7 R! p! ~8 Q& d! S" X2 }

. ]* I& V1 A+ z: ?1 n3 Z1 K/ M5 c2 o4 C4 `

& S0 D1 C" H) T$ [# q) ]  j
, s$ c0 I7 P# s8 q6 Y2 ]2 D3 k
VIP会员免费任意下载本站所有资源!---点击开通
回复

使用道具 举报

级别:一举成名 Lv.7

注册时间
2019-4-24
最后登录
2019-11-21
听众
13
收听
0
主题
0
蓝光币
197 枚
贡献
0 点
发表于 2019-10-24 08:49:04 | 显示全部楼层
楼主发贴辛苦了,谢谢楼主分享!我觉得中国高清电影网是注册对了!
VIP会员免费任意下载本站所有资源!---点击开通
回复

使用道具 举报

级别:荣升主角 Lv.5

注册时间
2018-2-26
最后登录
2019-11-21
听众
15
收听
0
主题
0
蓝光币
272 枚
贡献
0 点
发表于 2019-10-24 09:08:53 | 显示全部楼层

; t- h: P- k5 z+ W$ `( j这东西我收了!谢谢楼主!中国高清电影网真好!
VIP会员免费任意下载本站所有资源!---点击开通
回复

使用道具 举报

懒得打字嘛,点击右侧快捷回复 【右侧内容,后台自定义】
您需要登录后才可以回帖 登录 | 立即注册

本版积分规则

QQ|Archiver|手机版|小黑屋| 中国高清网 |网站地图

GMT+8, 2019-11-22 02:09 , Processed in 0.240239 second(s), 37 queries .

Powered by HDchina X3.4

Copyright 2017-2019©HDchina.All right reserved

返回顶部 联系我们