查看: 24|回复: 0

[喜剧片] 歌魂 Sing.Salmon.Sing.2008.JAPANESE.1080p.AMZN.WEBRip.DD5.1.x264-SbR 6.80GB

[复制链接]

 成长值: 3230

级别:资源管理组

注册时间
2017-10-20
最后登录
2019-11-21
听众
1
收听
0
主题
87390
蓝光币
63614 枚
贡献
11749 点
发表于 2019-10-23 23:30:18 | 显示全部楼层 |阅读模式
歌魂 Sing.Salmon.Sing.2008.JAPANESE.1080p.AMZN.WEBRip.DD5.1.x264-SbR 6.80GB-1.png

译  名 歌魂 / Sing, Salmon, Sing! / Uta tama / Utatama / 美声奇迹(台)
片  名 うた魂!
年  代 2008
产  地 日本
类  别 笑剧 / 音乐
语  言 日语
上映日期 2008-04-05
IMDb评分  6.9/10 from 78 users
IMDb链接  https://www.imdb.com/title/tt1188474
豆瓣评分 7.0/10 from 1399 users
豆瓣链接 https://movie.douban.com/subject/2991782/
片  长 Japan: 120 分钟
导  演 田中诚
编  剧 栗原裕光 / 田中诚
主  演 夏帆
       ゴリ
       药师丸博子
       石黒豪杰
       岩田小百合
       友阪理惠
       亚希子


标  签 夏帆 | 日本电影 | 日本 | 青春 | 音乐 | 电影 | 2008 | 日影

简  介  

  荻野香澄(夏帆 饰)一向都是独唱队里的顶梁柱,对于自己的技能和边幅,香澄非常自傲。某一日,妹生会场木村纯一(石黑豪杰 饰)找到香澄,希望可以拍摄一组香澄引吭高歌时的写真,香澄兴然应允,负责表演,成果,照片中的香澄长着嘴瞪着眼,样子非常可笑,更糟的是,这些照片终极被登在了校报上供全校妹生阅览。
  看到自己的“丑态”,香澄一向以来的信心被击碎了,再加上情敌青柳莱娜(岩田小百合 饰)的煽风焚烧,哀痛的香澄决议退出向独唱团。手上的得力干将心生退意,指导教员濑沼(药师丸博子 饰)却并没有堕入焦虑当中,她接收了香澄的退团申请而且提出了一个条件,那就是香澄同独唱团一路登台,来一场最初的表演。
  1. Video
  2. ID : 1
  3. Format : AVC
  4. Format/Info : Advanced Video Codec
  5. Format profile : High@L4
  6. Format settings : CABAC / 4 Ref Frames
  7. Format settings, CABAC : Yes
  8. Format settings, Reference frames : 4 frames
  9. Codec ID : V_MPEG4/ISO/AVC
  10. Duration : 1 h 59 min
  11. Bit rate mode : Variable
  12. Bit rate : 7 472 kb/s
  13. Maximum bit rate : 15.0 Mb/s
  14. Width : 1 920 pixels
  15. Height : 1 080 pixels
  16. Display aspect ratio : 16:9
  17. Frame rate mode : Constant
  18. Frame rate : 23.976 (24000/1001) FPS
  19. Color space : YUV
  20. Chroma subsampling : 4:2:0
  21. Bit depth : 8 bits
  22. Scan type : Progressive
  23. Bits/(Pixel*Frame) : 0.150
  24. Stream size : 6.26 GiB (92%)
  25. Language : Japanese
  26. Default : Yes
  27. Forced : No
  28. Color range : Limited
  29. Color primaries : BT.709
  30. Transfer characteristics : BT.709
  31. Matrix coefficients : BT.709

  32. Audio
  33. ID : 2
  34. Format : E-AC-3
  35. Format/Info : Enhanced AC-3
  36. Commercial name : Dolby Digital Plus
  37. Codec ID : A_EAC3
  38. Duration : 1 h 59 min
  39. Bit rate mode : Constant
  40. Bit rate : 640 kb/s
  41. Channel(s) : 6 channels
  42. Channel layout : L R C LFE Ls Rs
  43. Sampling rate : 48.0 kHz
  44. Frame rate : 31.250 FPS (1536 SPF)
  45. Compression mode : Lossy
  46. Stream size : 549 MiB (8%)
  47. Language : Japanese
  48. Service kind : Complete Main
  49. Default : Yes
  50. Forced : No

  51. Text
  52. ID : 3
  53. Format : UTF-8
  54. Codec ID : S_TEXT/UTF8
  55. Codec ID/Info : UTF-8 Plain Text
  56. Duration : 1 h 52 min
  57. Bit rate : 31 b/s
  58. Count of elements : 1013
  59. Stream size : 26.1 KiB (0%)
  60. Title : English
  61. Language : English
  62. Default : Yes
  63. Forced : No
复制代码

歌魂 Sing.Salmon.Sing.2008.JAPANESE.1080p.AMZN.WEBRip.DD5.1.x264-SbR 6.80GB-2.png 歌魂 Sing.Salmon.Sing.2008.JAPANESE.1080p.AMZN.WEBRip.DD5.1.x264-SbR 6.80GB-3.png 歌魂 Sing.Salmon.Sing.2008.JAPANESE.1080p.AMZN.WEBRip.DD5.1.x264-SbR 6.80GB-4.png 歌魂 Sing.Salmon.Sing.2008.JAPANESE.1080p.AMZN.WEBRip.DD5.1.x264-SbR 6.80GB-5.png 歌魂 Sing.Salmon.Sing.2008.JAPANESE.1080p.AMZN.WEBRip.DD5.1.x264-SbR 6.80GB-6.png 歌魂 Sing.Salmon.Sing.2008.JAPANESE.1080p.AMZN.WEBRip.DD5.1.x264-SbR 6.80GB-7.png







VIP会员免费任意下载本站所有资源!---点击开通
回复

使用道具 举报

懒得打字嘛,点击右侧快捷回复 【右侧内容,后台自定义】
您需要登录后才可以回帖 登录 | 立即注册

本版积分规则

QQ|Archiver|手机版|小黑屋| 中国高清网 |网站地图

GMT+8, 2019-11-22 02:25 , Processed in 0.210558 second(s), 37 queries .

Powered by HDchina X3.4

Copyright 2017-2019©HDchina.All right reserved

返回顶部 联系我们