查看: 16|回复: 0

[剧情片] 永不放弃 Escape.Me.Never.1947.1080p.AMZN.WEBRip.DDP2.0.x264-SbR 9.83GB

[复制链接]

 成长值: 3230

级别:资源管理组

注册时间
2017-10-20
最后登录
2019-11-21
听众
1
收听
0
主题
87390
蓝光币
63614 枚
贡献
11749 点
发表于 2019-10-23 23:25:07 | 显示全部楼层 |阅读模式
永不放弃 Escape.Me.Never.1947.1080p.AMZN.WEBRip.DDP2.0.x264-SbR 9.83GB-1.png

译  名 永不放弃
片  名 Escape Me Never
年  代 1947
产  地 美国
类  别 剧情
语  言 英语
上映日期 1947-11-07
IMDb评分  6.1/10 from 418 users
IMDb链接  https://www.imdb.com/title/tt0039357
豆瓣评分 0/10 from 0 users
豆瓣链接 https://movie.douban.com/subject/4270721/
片  长 104 分钟
导  演 Peter Godfrey / LeRoy Prinz
编  剧 Thames Williamson / Margaret Kennedy
主  演 埃罗尔·弗林 Errol Flynn
       艾达·卢皮诺 Ida Lupino
       埃琳诺·帕克 Eleanor Parker
       Gig Young


标  签 美国 | music | ballet | ErrolFlynn | 艾达·卢皮诺 | 美國 | 恋爱 | 可人儿

简  介  

  It is Venice, 1900, and Fenella is engaged to composer Caryl Dubrok until she hears that an unmarried woman named Gemma and child is staying with a composer named Dubrok. So the engagement is off and so is she for the mountains. There she meets and is intrigued by Sebastian, but she does not know that he is the composer that Gemma is staying with. When she learns about him, Gemma demands that she choose but Fenella cannot so Gemma and Sebastian leave to be married. They go to England to write his Ballet and Caryl and Fenella are re-engaged. But Fenella still loves the fun-loving Sebastian.
  1. Video
  2. ID                                       : 1
  3. Format                                   : AVC
  4. Format/Info                              : Advanced Video Codec
  5. Format profile                           : High@L4
  6. Format settings                          : CABAC / 4 Ref Frames
  7. Format settings, CABAC                   : Yes
  8. Format settings, Reference frames        : 4 frames
  9. Codec ID                                 : V_MPEG4/ISO/AVC
  10. Duration                                 : 1 h 43 min
  11. Bit rate mode                            : Variable
  12. Bit rate                                 : 13.4 Mb/s
  13. Maximum bit rate                         : 15.0 Mb/s
  14. Width                                    : 1 440 pixels
  15. Height                                   : 1 080 pixels
  16. Display aspect ratio                     : 4:3
  17. Frame rate mode                          : Constant
  18. Frame rate                               : 23.976 (24000/1001) FPS
  19. Color space                              : YUV
  20. Chroma subsampling                       : 4:2:0
  21. Bit depth                                : 8 bits
  22. Scan type                                : Progressive
  23. Bits/(Pixel*Frame)                       : 0.358
  24. Stream size                              : 9.69 GiB (99%)
  25. Writing library                          : x264 core 148 r2623 d5b2374
  26. Encoding settings                        : cabac=1 / ref=4 / deblock=1:-1:-1 / analyse=0x3:0x133 / me=umh / subme=9 / psy=1 / psy_rd=1.00:0.15 / mixed_ref=1 / me_range=24 / chroma_me=1 / trellis=2 / 8x8dct=1 / cqm=0 / deadzone=21,11 / fast_pskip=1 / chroma_qp_offset=-3 / threads=34 / lookahead_threads=5 / sliced_threads=0 / nr=150 / decimate=1 / interlaced=0 / bluray_compat=0 / constrained_intra=0 / bframes=8 / b_pyramid=2 / b_adapt=2 / b_bias=0 / direct=3 / weightb=1 / open_gop=0 / weightp=2 / keyint=120 / keyint_min=61 / scenecut=0 / intra_refresh=0 / rc_lookahead=120 / rc=crf / mbtree=1 / crf=18.0 / qcomp=0.60 / qpmin=0 / qpmax=69 / qpstep=4 / vbv_maxrate=15000 / vbv_bufsize=31250 / crf_max=0.0 / nal_hrd=vbr / filler=0 / ip_ratio=1.40 / aq=3:1.00
  27. Language                                 : English
  28. Default                                  : Yes
  29. Forced                                   : No
  30. Color range                              : Limited
  31. Color primaries                          : BT.709
  32. Transfer characteristics                 : BT.709
  33. Matrix coefficients                      : BT.709

  34. Audio
  35. ID                                       : 2
  36. Format                                   : AC-3
  37. Format/Info                              : Audio Coding 3
  38. Commercial name                          : Dolby Digital
  39. Codec ID                                 : A_AC3
  40. Duration                                 : 1 h 43 min
  41. Bit rate mode                            : Constant
  42. Bit rate                                 : 192 kb/s
  43. Channel(s)                               : 2 channels
  44. Channel layout                           : L R
  45. Sampling rate                            : 48.0 kHz
  46. Frame rate                               : 31.250 FPS (1536 SPF)
  47. Bit depth                                : 16 bits
  48. Compression mode                         : Lossy
  49. Stream size                              : 143 MiB (1%)
  50. Language                                 : English
  51. Service kind                             : Complete Main
  52. Default                                  : Yes
  53. Forced                                   : No

  54. Text #1
  55. ID                                       : 3
  56. Format                                   : UTF-8
  57. Codec ID                                 : S_TEXT/UTF8
  58. Codec ID/Info                            : UTF-8 Plain Text
  59. Duration                                 : 1 h 41 min
  60. Bit rate                                 : 75 b/s
  61. Count of elements                        : 1935
  62. Stream size                              : 56.1 KiB (0%)
  63. Language                                 : English
  64. Default                                  : No
  65. Forced                                   : No

  66. Text #2
  67. ID                                       : 4
  68. Format                                   : UTF-8
  69. Codec ID                                 : S_TEXT/UTF8
  70. Codec ID/Info                            : UTF-8 Plain Text
  71. Duration                                 : 1 h 41 min
  72. Bit rate                                 : 76 b/s
  73. Count of elements                        : 1969
  74. Stream size                              : 56.9 KiB (0%)
  75. Title                                    : SDH
  76. Language                                 : English
  77. Default                                  : No
  78. Forced                                   : No
复制代码

永不放弃 Escape.Me.Never.1947.1080p.AMZN.WEBRip.DDP2.0.x264-SbR 9.83GB-2.png 永不放弃 Escape.Me.Never.1947.1080p.AMZN.WEBRip.DDP2.0.x264-SbR 9.83GB-3.png 永不放弃 Escape.Me.Never.1947.1080p.AMZN.WEBRip.DDP2.0.x264-SbR 9.83GB-4.png 永不放弃 Escape.Me.Never.1947.1080p.AMZN.WEBRip.DDP2.0.x264-SbR 9.83GB-5.png 永不放弃 Escape.Me.Never.1947.1080p.AMZN.WEBRip.DDP2.0.x264-SbR 9.83GB-6.png 永不放弃 Escape.Me.Never.1947.1080p.AMZN.WEBRip.DDP2.0.x264-SbR 9.83GB-7.png







VIP会员免费任意下载本站所有资源!---点击开通
回复

使用道具 举报

懒得打字嘛,点击右侧快捷回复 【右侧内容,后台自定义】
您需要登录后才可以回帖 登录 | 立即注册

本版积分规则

QQ|Archiver|手机版|小黑屋| 中国高清网 |网站地图

GMT+8, 2019-11-22 03:38 , Processed in 0.252292 second(s), 37 queries .

Powered by HDchina X3.4

Copyright 2017-2019©HDchina.All right reserved

返回顶部 联系我们