查看: 197|回复: 4

[剧情片] 我不是药神 Dying.to.Survive.2018.PROPER.1080p.BluRay.x264-REGRET 7.67GB

[复制链接]

 成长值: 6410

级别:资源管理组

注册时间
2017-10-20
最后登录
2020-8-7
听众
1
收听
0
主题
100960
蓝光币
179128 枚
贡献
21715 点
发表于 2019-10-21 19:18:57 | 显示全部楼层 |阅读模式
我不是药神 Dying.to.Survive.2018.PROPER.1080p.BluRay.x264-REGRET 7.67GB-1.png

译  名 Drug Dealer / Dying to Survive / 中国药神 / 印度药商 / 印度药神 / 生命之路
片  名 我不是药神
年  代 2018
产  地 中国大陆
类  别 剧情 / 笑剧
语  言 汉语普通话 / 英语 / 上海话 / 印地语
上映日期 2018-06-30(大范围点映) / 2018-07-05(中国大陆)
IMDb评分  8.1/10 from 2930 users
IMDb链接  http://www.imdb.com/title/tt7362036
豆瓣评分 9.0/10 from 1163545 users
豆瓣链接 https://movie.douban.com/subject/26752088/
片  长 117分钟
导  演 文牧野 Muye Wen
编  剧 韩家女 Jianü Han / 钟伟 Wei Zhong / 文牧野 Muye Wen
主  演 徐峥 Zheng Xu
      王传君 Chuanjun Wang
      周一围 Yiwei Zhou
      谭卓 Zhuo Tan
      章宇 Yu Zhang
      杨新鸣 Xinming Yang
      王佳佳 Jiajia Wang
      王砚辉 Yanhui Wang
      贾晨飞 Chenfei Jia
      龚蓓苾 Beibi Gong
      宁浩 Hao Ning
      李乃文 Naiwen Li
      岳小军 Xiaojun Yue
      苇青 Qing Wei
      富冠铭 Guanming Fu
      巴拉特·巴蒂 Bharat Bhatia
      喜利图 Keith Shillitoe
      张海艳 Haiyan Zhang
      朱耕佑 Gengyou Zhu


标  签 人性 | 社会 | 实在事务改编 | 生命 | 中国大陆 | 剧情 | 黑色诙谐 | 药

简  介  

  普通中年男人程勇(徐峥 饰)经营着一家保健品店,失意又失婚。不速之客吕受益(王传君 饰)的到来,让他斥地了一条去印度买药做“代购”的新奇迹,虽然困难重重,但他在这条“买药之路”上发现了商机,一发不成整理地做起了治疗慢粒白血病的印度仿制药独家代理商。赢利的同时,他也熟悉了几个病患及家属,为救女儿被迫做舞女的思慧(谭卓 饰)、说一口流利“神父腔”英语的刘牧师(杨新鸣 饰),以及脾性暴烈的“黄毛”(章宇 饰),几小我合股做起了买卖,利润倍增的同时也危机四伏。程勇昔日的小舅子曹警官(周一围 饰)受命观察仿制药的泉源,假药估客张长林(王砚辉 饰)和瑞士正牌医药代表(李乃文 饰)也对其虎视眈眈,买卖逐步酿成了一场关于救赎的拉锯战。
本片改编自慢粒白血病患者陆勇代购抗癌药的实在业绩。

获奖情况  

  第55届台北金马影展(2018)
  金马奖 最好剧情片(提名)
  金马奖 最好男配角 徐峥
  金马奖 最好男配角(提名) 章宇
  金马奖 最好原著剧本 韩家女 / 钟伟 / 文牧野
  金马奖 最好新导演 文牧野
  金马奖 最好外型设想(提名) 李淼
  金马奖 最好剪辑(提名) 朱琳

  第38届香港电影金像奖(2019)
  最好两岸华语电影

  第13届亚洲电影大奖(2019)
  最好电影(提名)
  最好男配角(提名) 徐峥
  最好男配角 章宇
  最好编剧(提名) 韩家女 / 钟伟 / 文牧野

  第14届中国长春电影节(2018)
  金鹿奖 最好华语故事片
  金鹿奖 最好编剧 韩家女 / 钟伟 / 文牧野
  金鹿奖 最好男配角 徐峥
  金鹿奖 最好男配角 王传君

  第26届北京大妹生电影节(2019)
  最好导演奖 文牧野
  最好男演员奖 徐峥
  最好新人奖 章宇

  第5届豆瓣电影年度榜单(2018)
  评分最高的华语电影
  最受关注的院线电影
  评分最高的笑剧片



  1. Video
  2. ID                                       : 1
  3. Format                                   : AVC
  4. Format/Info                              : Advanced Video Codec
  5. Format profile                           : High@L4
  6. Format settings                          : CABAC / 4 Ref Frames
  7. Format settings, CABAC                   : Yes
  8. Format settings, Reference frames        : 4 frames
  9. Codec ID                                 : V_MPEG4/ISO/AVC
  10. Duration                                 : 1 h 56 min
  11. Bit rate                                 : 8 781 kb/s
  12. Width                                    : 1 920 pixels
  13. Height                                   : 1 040 pixels
  14. Display aspect ratio                     : 1.85:1
  15. Frame rate mode                          : Constant
  16. Frame rate                               : 24.000 FPS
  17. Color space                              : YUV
  18. Chroma subsampling                       : 4:2:0
  19. Bit depth                                : 8 bits
  20. Scan type                                : Progressive
  21. Bits/(Pixel*Frame)                       : 0.183
  22. Stream size                              : 7.13 GiB (93%)
  23. Writing library                          : x264 core 157 r2970 5493be8
  24. Encoding settings                        : cabac=1 / ref=4 / deblock=1:-3:-3 / analyse=0x3:0x133 / me=umh / subme=9 / psy=1 / psy_rd=1.00:0.00 / mixed_ref=1 / me_range=16 / chroma_me=1 / trellis=2 / 8x8dct=1 / cqm=0 / deadzone=21,11 / fast_pskip=0 / chroma_qp_offset=-2 / threads=24 / lookahead_threads=2 / sliced_threads=0 / nr=0 / decimate=1 / interlaced=0 / bluray_compat=0 / constrained_intra=0 / bframes=3 / b_pyramid=2 / b_adapt=1 / b_bias=0 / direct=3 / weightb=1 / open_gop=0 / weightp=2 / keyint=240 / keyint_min=24 / scenecut=40 / intra_refresh=0 / rc_lookahead=50 / rc=2pass / mbtree=1 / bitrate=8781 / ratetol=1.0 / qcomp=0.60 / qpmin=0 / qpmax=69 / qpstep=4 / cplxblur=20.0 / qblur=0.5 / ip_ratio=1.40 / aq=1:1.00
  25. Language                                 : English
  26. Default                                  : Yes
  27. Forced                                   : No

  28. Audio
  29. ID                                       : 2
  30. Format                                   : AC-3
  31. Format/Info                              : Audio Coding 3
  32. Commercial name                          : Dolby Digital
  33. Codec ID                                 : A_AC3
  34. Duration                                 : 1 h 56 min
  35. Bit rate mode                            : Constant
  36. Bit rate                                 : 640 kb/s
  37. Channel(s)                               : 6 channels
  38. Channel layout                           : L R C LFE Ls Rs
  39. Sampling rate                            : 48.0 kHz
  40. Frame rate                               : 31.250 FPS (1536 SPF)
  41. Bit depth                                : 16 bits
  42. Compression mode                         : Lossy
  43. Stream size                              : 532 MiB (7%)
  44. Language                                 : Chinese
  45. Service kind                             : Complete Main
  46. Default                                  : Yes
  47. Forced                                   : No

  48. Text
  49. ID                                       : 3
  50. Format                                   : UTF-8
  51. Codec ID                                 : S_TEXT/UTF8
  52. Codec ID/Info                            : UTF-8 Plain Text
  53. Duration                                 : 1 h 51 min
  54. Bit rate                                 : 48 b/s
  55. Count of elements                        : 1624
  56. Stream size                              : 40.1 KiB (0%)
  57. Title                                    : English
  58. Language                                 : English
  59. Default                                  : Yes
  60. Forced                                   : Yes

  61. Menu
  62. 00:00:00.000                             : en:00:00:00.000
  63. 00:08:56.208                             : en:00:08:56.208
  64. 00:17:28.000                             : en:00:17:28.000
  65. 00:28:10.625                             : en:00:28:10.625
  66. 00:37:16.917                             : en:00:37:16.917
  67. 00:51:39.125                             : en:00:51:39.125
  68. 01:03:58.250                             : en:01:03:58.250
  69. 01:11:11.792                             : en:01:11:11.792
  70. 01:20:46.042                             : en:01:20:46.042
  71. 01:32:55.250                             : en:01:32:55.250
  72. 01:44:34.000                             : en:01:44:34.000
  73. 01:51:10.333                             : en:01:51:10.333
复制代码

我不是药神 Dying.to.Survive.2018.PROPER.1080p.BluRay.x264-REGRET 7.67GB-2.png







本帖隐藏的下载地址需要VIP会员才可阅读,您需要升级才可阅读,点击这里升级VIP
回复

使用道具 举报

级别:功成名就 Lv.9

注册时间
2019-4-24
最后登录
2020-8-6
听众
16
收听
0
主题
0
蓝光币
575 枚
贡献
0 点
发表于 2019-10-22 14:02:04 | 显示全部楼层
楼主发贴辛苦了,谢谢楼主分享!我觉得中国高清电影网是注册对了!
回复

使用道具 举报

级别:普通观众 Lv.2

注册时间
2018-4-24
最后登录
2020-5-23
听众
9
收听
0
主题
0
蓝光币
29 枚
贡献
0 点
发表于 2019-11-20 20:23:39 | 显示全部楼层
楼主发贴辛苦了,谢谢楼主分享!我觉得中国高清电影网是注册对了!
回复

使用道具 举报

级别:初级观众 Lv.1

注册时间
2019-12-29
最后登录
2020-6-16
听众
2
收听
0
主题
0
蓝光币
1 枚
贡献
0 点
发表于 2020-1-14 22:33:44 | 显示全部楼层
楼主发贴辛苦了,谢谢楼主分享!我觉得中国高清电影网是注册对了!
回复

使用道具 举报

级别:专业龙套 Lv.4

注册时间
2019-12-20
最后登录
2020-8-6
听众
4
收听
0
主题
0
蓝光币
203 枚
贡献
0 点
QQ
发表于 2020-2-4 19:35:11 | 显示全部楼层
楼主发贴辛苦了,谢谢楼主分享!我觉得中国高清电影网是注册对了!
回复

使用道具 举报

懒得打字嘛,点击右侧快捷回复 【右侧内容,后台自定义】
您需要登录后才可以回帖 登录 | 立即注册

本版积分规则

Archiver|手机版|小黑屋| 中国高清网 ( ICP备17007870号-2 ) |网站地图 

GMT+8, 2020-8-7 11:31 , Processed in 0.166167 second(s), 40 queries .

Powered by HDchina X3.4

Copyright 2017-2019©HDchina.All right reserved

返回顶部 联系我们