查看: 24|回复: 0

[剧情片] 赌城纵横 Hard.Eight.1996.1080p.WEBRip.x264-RARBG 1.94GB

[复制链接]

 成长值: 3190

级别:资源管理组

注册时间
2017-10-20
最后登录
2019-11-18
听众
1
收听
0
主题
87131
蓝光币
62635 枚
贡献
11489 点
发表于 2019-10-17 19:08:50 | 显示全部楼层 |阅读模式
赌城纵横 Hard.Eight.1996.1080p.WEBRip.x264-RARBG 1.94GB-1.png

译  名 赌城纵横 / Sydney / 赌场纵横 / 赌城新王牌
片  名 Hard Eight
年  代 1996
产  地 美国
类  别 剧情 / 惊悚 / 犯罪
语  言 英语
上映日期 1997-02-28(美国) / 1997-10-17
IMDb评分  7.2/10 from 36886 users
IMDb链接  https://www.imdb.com/title/tt0119256
豆瓣评分 6.8/10 from 817 users
豆瓣链接 https://movie.douban.com/subject/1417898/
片  长 102 分钟
导  演 Paul Thomas Anderson
编  剧 Paul Thomas Anderson
主  演 Philip Baker Hall
       John C. Reilly
       Gwyneth Paltrow
       Samuel L. Jackson
       F. William Parker
       Philip Seymour Hoffman
       Melora Walters


标  签 美国 | PaulThomasAnderson | 保罗·托马斯·安德森 | 1996 | 剧情 | 犯罪 | 美国电影 | Paul_Thomas_Anderson

简  介  

  一次偶然中,西德尼(菲利浦·贝克·霍尔 Philip Baker Hall 饰)碰见了名为约翰(约翰·C·赖利 John C. Reilly 饰)的男人,他将贫困失意的约翰带到了赌场当中,教会了他赌术,希望约翰可以借此否极泰来。在赌场,西德尼碰见了违反了赌场规定和客人停止精神买卖的女招待克莱门汀(格温妮丝·帕特洛 Gwyneth Paltrow 饰),哪晓得克莱门汀和约翰一碰头就坠入了情网,顿时决议携手步入婚姻的殿堂。
  西德尼的朋友吉米(塞缪尔·杰克逊 Samuel L. Jackson 饰)找到了西德尼,他的手中握着一个属于西德尼的奥秘。现在,吉米以这个奥秘为筹码想要威胁和勒索西德尼,不意却惹上了杀身之祸。
  1. Video
  2. ID                                       : 1
  3. Format                                   : AVC
  4. Format/Info                              : Advanced Video Codec
  5. Format profile                           : High@L4
  6. Format settings                          : CABAC / 4 Ref Frames
  7. Format settings, CABAC                   : Yes
  8. Format settings, Reference frames        : 4 frames
  9. Codec ID                                 : avc1
  10. Codec ID/Info                            : Advanced Video Coding
  11. Duration                                 : 1 h 41 min
  12. Bit rate                                 : 2 500 kb/s
  13. Width                                    : 1 920 pixels
  14. Height                                   : 816 pixels
  15. Display aspect ratio                     : 2.35:1
  16. Frame rate mode                          : Constant
  17. Frame rate                               : 23.976 (23976/1000) FPS
  18. Color space                              : YUV
  19. Chroma subsampling                       : 4:2:0
  20. Bit depth                                : 8 bits
  21. Scan type                                : Progressive
  22. Bits/(Pixel*Frame)                       : 0.067
  23. Stream size                              : 1.78 GiB (92%)
  24. Writing library                          : x264 core 152 r2851M ba24899
  25. Encoding settings                        : cabac=1 / ref=4 / deblock=1:-1:-1 / analyse=0x3:0x113 / me=umh / subme=9 / psy=1 / psy_rd=1.00:0.15 / mixed_ref=1 / me_range=24 / chroma_me=1 / trellis=2 / 8x8dct=1 / cqm=0 / deadzone=21,11 / fast_pskip=1 / chroma_qp_offset=-3 / threads=16 / lookahead_threads=4 / sliced_threads=0 / nr=0 / decimate=1 / interlaced=0 / bluray_compat=0 / constrained_intra=0 / bframes=3 / b_pyramid=2 / b_adapt=2 / b_bias=0 / direct=3 / weightb=1 / open_gop=0 / weightp=2 / keyint=250 / keyint_min=25 / scenecut=40 / intra_refresh=0 / rc_lookahead=50 / rc=2pass / mbtree=1 / bitrate=2500 / ratetol=1.0 / qcomp=0.60 / qpmin=0 / qpmax=69 / qpstep=4 / cplxblur=20.0 / qblur=0.5 / vbv_maxrate=31250 / vbv_bufsize=31250 / nal_hrd=none / filler=0 / ip_ratio=1.40 / aq=3:1.00
  26. Encoded date                             : UTC 2019-10-17 03:32:20
  27. Tagged date                              : UTC 2019-10-17 03:32:20
  28. Codec configuration box                  : avcC

  29. Audio
  30. ID                                       : 2
  31. Format                                   : AAC LC
  32. Format/Info                              : Advanced Audio Codec Low Complexity
  33. Codec ID                                 : mp4a-40-2
  34. Duration                                 : 1 h 41 min
  35. Duration_LastFrame                       : -11 ms
  36. Bit rate mode                            : Constant
  37. Bit rate                                 : 224 kb/s
  38. Channel(s)                               : 2 channels
  39. Channel layout                           : L R
  40. Sampling rate                            : 48.0 kHz
  41. Frame rate                               : 46.875 FPS (1024 SPF)
  42. Compression mode                         : Lossy
  43. Stream size                              : 163 MiB (8%)
  44. Language                                 : English
  45. Default                                  : Yes
  46. Alternate group                          : 1
  47. Encoded date                             : UTC 2019-10-17 03:32:20
  48. Tagged date                              : UTC 2019-10-17 03:32:20
复制代码

赌城纵横 Hard.Eight.1996.1080p.WEBRip.x264-RARBG 1.94GB-2.png 赌城纵横 Hard.Eight.1996.1080p.WEBRip.x264-RARBG 1.94GB-3.png 赌城纵横 Hard.Eight.1996.1080p.WEBRip.x264-RARBG 1.94GB-4.png







VIP会员免费任意下载本站所有资源!---点击开通
回复

使用道具 举报

懒得打字嘛,点击右侧快捷回复 【右侧内容,后台自定义】
您需要登录后才可以回帖 登录 | 立即注册

本版积分规则

QQ|Archiver|手机版|小黑屋| 中国高清网 |网站地图 

GMT+8, 2019-11-18 14:43 , Processed in 0.190434 second(s), 37 queries .

Powered by HDchina X3.4

Copyright 2017-2019©HDchina.All right reserved

返回顶部 联系我们