查看: 25|回复: 0

[纪录片] 纽伦堡审判启示录 Nuremberg.1948.1080p.WEBRip.x264-RARBG 1.43GB

[复制链接]

 成长值: 3190

级别:资源管理组

注册时间
2017-10-20
最后登录
2019-11-18
听众
1
收听
0
主题
87110
蓝光币
62627 枚
贡献
11468 点
发表于 2019-10-17 14:56:56 | 显示全部楼层 |阅读模式
纽伦堡审判启迪录 Nuremberg.1948.1080p.WEBRip.x264-RARBG 1.43GB-1.png

译  名 纽伦堡审判启迪录 / Nürnberg und seine Lehre
片  名 Nuremberg
年  代 1946
产  地 美国
类  别 记载片
语  言 英语 / 德语
上映日期 1946
IMDb评分  6.6/10 from 70 users
IMDb链接  https://www.imdb.com/title/tt0441889
豆瓣评分 0/10 from 0 users
豆瓣链接 https://movie.douban.com/subject/5221762/
片  长 USA: 78 分钟
导  演 Stuart Schulberg
编  剧 Stuart Schulberg
主  演 Francis Biddle
       Karl D?nitz
       Hans Frank


标  签 记载片 | 二战 | 美国 | 1946 | Nuremberg | 123

简  介  

  《纽伦堡审判》是1948年斯图尔特?舒伯格为美国国防部拍摄的影片。可是,出于政治缘由,美国政府历来没有 在本国的影院上映大概在其他国家刊行该片。多年以来,原始的电影底片和音效素材逐步损毁,只要妇数几份拷贝保存下来。
  在60多年今后,舒伯格的女儿拿德拉?舒伯格经心复原了该片。按照天下上现存最好的德国拷贝建造出一份新的35毫米底片,未做剪辑,保存了原始影片素材。版本中复原的原始录音初次可以使观众听到庭审控辩双方原汁原味的声音。
  《纽伦堡审判启迪录》这部影片经过第一手的材料,周全展现了检察官若何在纽伦堡审判中操纵纳粹份子自己拍摄的影象材料作为证据,完成对纳粹份子所犯战争罪行的起诉。大量庭审纪实实在活泼地显现出控辩双方的剧烈陈词,使人震动、叫绝且扼腕。
  法庭终极判决22名被告人犯有破坏战争罪、战争罪或反人性罪,判处包括纳粹二号头子戈林在内的12人绞刑,3人无期徒刑,4人有期徒刑,3人无罪,并宣布政治魁首团体、奥秘差人(奥秘差人)和党卫队等3个构造为犯罪构造。
  1. Video
  2. ID                                       : 1
  3. Format                                   : AVC
  4. Format/Info                              : Advanced Video Codec
  5. Format profile                           : High@L4
  6. Format settings                          : CABAC / 4 Ref Frames
  7. Format settings, CABAC                   : Yes
  8. Format settings, Reference frames        : 4 frames
  9. Codec ID                                 : avc1
  10. Codec ID/Info                            : Advanced Video Coding
  11. Duration                                 : 1 h 15 min
  12. Bit rate                                 : 2 500 kb/s
  13. Width                                    : 1 408 pixels
  14. Height                                   : 1 080 pixels
  15. Display aspect ratio                     : 4:3
  16. Frame rate mode                          : Constant
  17. Frame rate                               : 29.970 (29970/1000) FPS
  18. Color space                              : YUV
  19. Chroma subsampling                       : 4:2:0
  20. Bit depth                                : 8 bits
  21. Scan type                                : Progressive
  22. Bits/(Pixel*Frame)                       : 0.055
  23. Stream size                              : 1.31 GiB (91%)
  24. Writing library                          : x264 core 152 r2851M ba24899
  25. Encoding settings                        : cabac=1 / ref=4 / deblock=1:-1:-1 / analyse=0x3:0x113 / me=umh / subme=9 / psy=1 / psy_rd=1.00:0.15 / mixed_ref=1 / me_range=24 / chroma_me=1 / trellis=2 / 8x8dct=1 / cqm=0 / deadzone=21,11 / fast_pskip=1 / chroma_qp_offset=-3 / threads=16 / lookahead_threads=4 / sliced_threads=0 / nr=0 / decimate=1 / interlaced=0 / bluray_compat=0 / constrained_intra=0 / bframes=3 / b_pyramid=2 / b_adapt=2 / b_bias=0 / direct=3 / weightb=1 / open_gop=0 / weightp=2 / keyint=250 / keyint_min=25 / scenecut=40 / intra_refresh=0 / rc_lookahead=50 / rc=2pass / mbtree=1 / bitrate=2500 / ratetol=1.0 / qcomp=0.60 / qpmin=0 / qpmax=69 / qpstep=4 / cplxblur=20.0 / qblur=0.5 / vbv_maxrate=31250 / vbv_bufsize=31250 / nal_hrd=none / filler=0 / ip_ratio=1.40 / aq=3:1.00
  26. Encoded date                             : UTC 2019-10-17 03:42:55
  27. Tagged date                              : UTC 2019-10-17 03:42:55
  28. Codec configuration box                  : avcC

  29. Audio
  30. ID                                       : 2
  31. Format                                   : AAC LC
  32. Format/Info                              : Advanced Audio Codec Low Complexity
  33. Codec ID                                 : mp4a-40-2
  34. Duration                                 : 1 h 15 min
  35. Bit rate mode                            : Constant
  36. Bit rate                                 : 224 kb/s
  37. Channel(s)                               : 1 channel
  38. Channel layout                           : C
  39. Sampling rate                            : 48.0 kHz
  40. Frame rate                               : 46.875 FPS (1024 SPF)
  41. Compression mode                         : Lossy
  42. Stream size                              : 120 MiB (8%)
  43. Language                                 : English
  44. Default                                  : Yes
  45. Alternate group                          : 1
  46. Encoded date                             : UTC 2019-10-17 03:42:55
  47. Tagged date                              : UTC 2019-10-17 03:42:55
复制代码

纽伦堡审判启迪录 Nuremberg.1948.1080p.WEBRip.x264-RARBG 1.43GB-2.png 纽伦堡审判启迪录 Nuremberg.1948.1080p.WEBRip.x264-RARBG 1.43GB-3.png 纽伦堡审判启迪录 Nuremberg.1948.1080p.WEBRip.x264-RARBG 1.43GB-4.png






VIP会员免费任意下载本站所有资源!---点击开通
回复

使用道具 举报

懒得打字嘛,点击右侧快捷回复 【右侧内容,后台自定义】
您需要登录后才可以回帖 登录 | 立即注册

本版积分规则

QQ|Archiver|手机版|小黑屋| 中国高清网 |网站地图 

GMT+8, 2019-11-18 13:52 , Processed in 0.174376 second(s), 37 queries .

Powered by HDchina X3.4

Copyright 2017-2019©HDchina.All right reserved

返回顶部 联系我们