查看: 23|回复: 0

[剧情片] 雪地黄金犬/白牙 White.Fang.1991.1080p.WEBRip.x264-RARBG 2.08GB

[复制链接]

 成长值: 3190

级别:资源管理组

注册时间
2017-10-20
最后登录
2019-11-18
听众
1
收听
0
主题
87097
蓝光币
62623 枚
贡献
11455 点
发表于 2019-10-17 14:47:35 | 显示全部楼层 |阅读模式
雪地黄金犬/白牙 White.Fang.1991.1080p.WEBRip.x264-RARBG 2.08GB-1.png

译  名 雪地黄金犬 / 白牙 / 白芳
片  名 White Fang
年  代 1991
产  地 美国
类  别 剧情 / 冒险
语  言 英语
上映日期 1991-01-18
IMDb评分  6.7/10 from 18270 users
IMDb链接  https://www.imdb.com/title/tt0103247
豆瓣评分 8.5/10 from 1905 users
豆瓣链接 https://movie.douban.com/subject/1769033/
片  长 107 分钟
导  演 Randal Kleiser
编  剧 Jack London / Jeanne Rosenberg
主  演 Klaus Maria Brandauer
       Ethan Hawke
       Seymour Cassel
       Susan Hogan
       James Remar
       Bill Moseley


标  签 动物 | 美国 | 狗狗 | 美国电影 | 雪地黄金犬 | EthanHawke | 剧情 | 狗

简  介  

  为了完成父亲的遗言,杰克(伊拿·霍克 Ethan Hawke 饰)单身来到了悠远的阿拉斯加寻觅金矿。在这里,他碰见了善良友爱的艾利克斯(克劳斯·马利亚·布朗道尔 Klaus Maria Brandauer 饰),两人决议结伴配合奋斗。
  一只名叫白牙的阿拉斯加雪橇犬改变了杰克的命运,将他从灭亡线上拯救了返来,而当白牙被赌狗的无赖们当做摇钱树之时,杰克也绝不犹豫的对其伸出了援手。一人一狗之间,友谊和信赖正在渐渐滋生。白牙靠着自己的天赋帮助杰克与艾利克斯找到了金矿,亦庇护了金矿不被好人夺走。当发了财的艾利克斯约请杰克回纽约一路创业之时,面临依依不舍的白牙,杰克犹豫了。
  1. Video
  2. ID                                       : 1
  3. Format                                   : AVC
  4. Format/Info                              : Advanced Video Codec
  5. Format profile                           : High@L4
  6. Format settings                          : CABAC / 4 Ref Frames
  7. Format settings, CABAC                   : Yes
  8. Format settings, Reference frames        : 4 frames
  9. Codec ID                                 : avc1
  10. Codec ID/Info                            : Advanced Video Coding
  11. Duration                                 : 1 h 48 min
  12. Bit rate                                 : 2 500 kb/s
  13. Width                                    : 1 920 pixels
  14. Height                                   : 1 080 pixels
  15. Display aspect ratio                     : 16:9
  16. Frame rate mode                          : Constant
  17. Frame rate                               : 23.976 (23976/1000) FPS
  18. Color space                              : YUV
  19. Chroma subsampling                       : 4:2:0
  20. Bit depth                                : 8 bits
  21. Scan type                                : Progressive
  22. Bits/(Pixel*Frame)                       : 0.050
  23. Stream size                              : 1.90 GiB (92%)
  24. Writing library                          : x264 core 152 r2851M ba24899
  25. Encoding settings                        : cabac=1 / ref=4 / deblock=1:-1:-1 / analyse=0x3:0x113 / me=umh / subme=9 / psy=1 / psy_rd=1.00:0.15 / mixed_ref=1 / me_range=24 / chroma_me=1 / trellis=2 / 8x8dct=1 / cqm=0 / deadzone=21,11 / fast_pskip=1 / chroma_qp_offset=-3 / threads=16 / lookahead_threads=4 / sliced_threads=0 / nr=0 / decimate=1 / interlaced=0 / bluray_compat=0 / constrained_intra=0 / bframes=3 / b_pyramid=2 / b_adapt=2 / b_bias=0 / direct=3 / weightb=1 / open_gop=0 / weightp=2 / keyint=250 / keyint_min=25 / scenecut=40 / intra_refresh=0 / rc_lookahead=50 / rc=2pass / mbtree=1 / bitrate=2500 / ratetol=1.0 / qcomp=0.60 / qpmin=0 / qpmax=69 / qpstep=4 / cplxblur=20.0 / qblur=0.5 / vbv_maxrate=31250 / vbv_bufsize=31250 / nal_hrd=none / filler=0 / ip_ratio=1.40 / aq=3:1.00
  26. Encoded date                             : UTC 2019-10-16 19:08:38
  27. Tagged date                              : UTC 2019-10-16 19:08:38
  28. Codec configuration box                  : avcC

  29. Audio
  30. ID                                       : 2
  31. Format                                   : AAC LC
  32. Format/Info                              : Advanced Audio Codec Low Complexity
  33. Codec ID                                 : mp4a-40-2
  34. Duration                                 : 1 h 48 min
  35. Duration_LastFrame                       : -11 ms
  36. Bit rate mode                            : Constant
  37. Bit rate                                 : 224 kb/s
  38. Channel(s)                               : 6 channels
  39. Channel layout                           : C L R Ls Rs LFE
  40. Sampling rate                            : 48.0 kHz
  41. Frame rate                               : 46.875 FPS (1024 SPF)
  42. Compression mode                         : Lossy
  43. Stream size                              : 175 MiB (8%)
  44. Language                                 : English
  45. Default                                  : Yes
  46. Alternate group                          : 1
  47. Encoded date                             : UTC 2019-10-16 19:08:38
  48. Tagged date                              : UTC 2019-10-16 19:08:38
复制代码

雪地黄金犬/白牙 White.Fang.1991.1080p.WEBRip.x264-RARBG 2.08GB-2.png 雪地黄金犬/白牙 White.Fang.1991.1080p.WEBRip.x264-RARBG 2.08GB-3.png 雪地黄金犬/白牙 White.Fang.1991.1080p.WEBRip.x264-RARBG 2.08GB-4.png







VIP会员免费任意下载本站所有资源!---点击开通
回复

使用道具 举报

懒得打字嘛,点击右侧快捷回复 【右侧内容,后台自定义】
您需要登录后才可以回帖 登录 | 立即注册

本版积分规则

QQ|Archiver|手机版|小黑屋| 中国高清网 |网站地图 

GMT+8, 2019-11-18 13:36 , Processed in 0.153577 second(s), 37 queries .

Powered by HDchina X3.4

Copyright 2017-2019©HDchina.All right reserved

返回顶部 联系我们