查看: 50|回复: 0

[REMUX.HEVC] 优步危机/斯图伯 Stuber.2019.2160p.BluRay.REMUX.HEVC.DTS-HD.MA.TrueHD.7.1.Atmos-FGT 52.45GB

[复制链接]

 成长值: 2930

级别:资源管理组

注册时间
2017-10-20
最后登录
2019-10-24
听众
1
收听
0
主题
85436
蓝光币
56824 枚
贡献
9794 点
发表于 2019-10-7 14:29:29 | 显示全部楼层 |阅读模式
优步危机/斯图伯 Stuber.2019.2160p.BluRay.REMUX.HEVC.DTS-HD.MA.TrueHD.7.1.Atmos-FGT 52.45GB-1.png

译  名 优步危机 / 斯图伯 / 狂玩嘢时速(港) / 玩命优步(台)
片  名 Stuber
年  代 2019
产  地 美国
类  别 笑剧 / 行动
语  言 英语
上映日期 2019-07-12(美国)
IMDb评分  6.2/10 from 9167 users
IMDb链接  http://www.imdb.com/title/tt7734218
豆瓣评分 6.5/10 from 246 users
豆瓣链接 https://movie.douban.com/subject/27603782/
片  长 105分钟
导  演 迈克尔·道斯 Michael Dowse
编  剧 特里珀·克兰西 Tripper Clancy
主  演 戴夫·巴蒂斯塔 Dave Bautista
       库梅尔·南贾尼 Kumail Nanjiani
       伊科·乌艾斯 Iko Uwais
       贝蒂·吉尔平 Betty Gilpin
       米拉·索维诺 Mira Sorvino
       娜塔丽·莫瑞丝 Natalie Morales
       约书亚·米克尔 Joshua Mikel
       阿明·约瑟夫 Amin Joseph
       斯科特·劳伦斯 Scott Lawrence
       克里斯汀·霍恩 Christine Horn
       汉斯·马雷罗 Hans Marrero
       雷内?莫兰 Rene Moran


标  签 笑剧 | 行动 | 美国 | 2019 | 犯罪 | 搞笑 | 二十世纪福克斯 | 家庭

简  介  

  南贾尼饰演一位性情温顺的Uber司机,某天载的乘客是一位头发花白的差人,他正在追捕一位残暴的杀手。司机发现自己面临艰难考验,他必必要连结冷静,保证办事质量以获得五星好评。
  1. Video
  2. ID                                       : 1
  3. Format                                   : HEVC
  4. Format/Info                              : High Efficiency Video Coding
  5. Format profile                           : Main High@L4@High
  6. HDR format                               : SMPTE ST 2094 App 4, Version 1, HDR10+ Profile A compatible
  7. Codec ID                                 : V_MPEGH/ISO/HEVC
  8. Duration                                 : 1 h 33 min
  9. Bit rate                                 : 66.3 Mb/s
  10. Width                                    : 3 840 pixels
  11. Height                                   : 2 160 pixels
  12. Display aspect ratio                     : 16:9
  13. Frame rate mode                          : Constant
  14. Frame rate                               : 23.976 (24000/1001) FPS
  15. Color space                              : YUV
  16. Chroma subsampling                       : 4:2:0 (Type 2)
  17. Bit depth                                : 10 bits
  18. Bits/(Pixel*Frame)                       : 0.333
  19. Stream size                              : 43.3 GiB (82%)
  20. Title                                    : Stuber.2019.2160p.BluRay.REMUX.HEVC.DTS-HD.MA.TrueHD.7.1.Atmos-FGT
  21. Language                                 : English
  22. Default                                  : No
  23. Forced                                   : No
  24. Color range                              : Limited
  25. Color primaries                          : BT.2020
  26. Transfer characteristics                 : PQ
  27. Matrix coefficients                      : BT.2020 non-constant
  28. Mastering display color primaries        : Display P3
  29. Mastering display luminance              : min: 0.0050 cd/m2, max: 1000 cd/m2

  30. Audio #1
  31. ID                                       : 2
  32. Format                                   : MLP FBA 16-ch
  33. Format/Info                              : Meridian Lossless Packing FBA with 16-channel presentation
  34. Commercial name                          : Dolby TrueHD with Dolby Atmos
  35. Codec ID                                 : A_TRUEHD
  36. Duration                                 : 1 h 33 min
  37. Bit rate mode                            : Variable
  38. Bit rate                                 : 3 937 kb/s
  39. Maximum bit rate                         : 6 696 kb/s
  40. Channel(s)                               : 8 channels
  41. Channel layout                           : L R C LFE Ls Rs Lb Rb
  42. Sampling rate                            : 48.0 kHz
  43. Frame rate                               : 1 200.000 FPS (40 SPF)
  44. Compression mode                         : Lossless
  45. Stream size                              : 2.57 GiB (5%)
  46. Title                                    : Stuber.2019.2160p.BluRay.REMUX.HEVC.DTS-HD.MA.TrueHD.7.1.Atmos-FGT
  47. Language                                 : English
  48. Default                                  : Yes
  49. Forced                                   : No
  50. Number of dynamic objects                : 13
  51. Bed channel count                        : 1 channel
  52. Bed channel configuration                : LFE

  53. Audio #2
  54. ID                                       : 3
  55. Format                                   : DTS XLL
  56. Format/Info                              : Digital Theater Systems
  57. Commercial name                          : DTS-HD Master Audio
  58. Codec ID                                 : A_DTS
  59. Duration                                 : 1 h 33 min
  60. Bit rate mode                            : Variable
  61. Bit rate                                 : 3 908 kb/s
  62. Channel(s)                               : 8 channels
  63. Channel layout                           : C L R LFE Lb Rb Lss Rss
  64. Sampling rate                            : 48.0 kHz
  65. Frame rate                               : 93.750 FPS (512 SPF)
  66. Bit depth                                : 24 bits
  67. Compression mode                         : Lossless
  68. Stream size                              : 2.55 GiB (5%)
  69. Title                                    : Stuber.2019.2160p.BluRay.REMUX.HEVC.DTS-HD.MA.TrueHD.7.1.Atmos-FGT
  70. Language                                 : English
  71. Default                                  : No
  72. Forced                                   : No

  73. Audio #3
  74. ID                                       : 4
  75. Format                                   : AC-3
  76. Format/Info                              : Audio Coding 3
  77. Commercial name                          : Dolby Digital
  78. Codec ID                                 : A_AC3
  79. Duration                                 : 1 h 33 min
  80. Bit rate mode                            : Constant
  81. Bit rate                                 : 640 kb/s
  82. Channel(s)                               : 6 channels
  83. Channel layout                           : L R C LFE Ls Rs
  84. Sampling rate                            : 48.0 kHz
  85. Frame rate                               : 31.250 FPS (1536 SPF)
  86. Bit depth                                : 16 bits
  87. Compression mode                         : Lossy
  88. Stream size                              : 428 MiB (1%)
  89. Title                                    : Stuber.2019.2160p.BluRay.REMUX.HEVC.DTS-HD.MA.TrueHD.7.1.Atmos-FGT
  90. Language                                 : English
  91. Service kind                             : Complete Main
  92. Default                                  : No
  93. Forced                                   : No

  94. Audio #4
  95. ID                                       : 5
  96. Format                                   : AC-3
  97. Format/Info                              : Audio Coding 3
  98. Commercial name                          : Dolby Digital
  99. Codec ID                                 : A_AC3
  100. Duration                                 : 1 h 33 min
  101. Bit rate mode                            : Constant
  102. Bit rate                                 : 448 kb/s
  103. Channel(s)                               : 6 channels
  104. Channel layout                           : L R C LFE Ls Rs
  105. Sampling rate                            : 48.0 kHz
  106. Frame rate                               : 31.250 FPS (1536 SPF)
  107. Bit depth                                : 16 bits
  108. Compression mode                         : Lossy
  109. Stream size                              : 299 MiB (1%)
  110. Title                                    : Stuber.2019.2160p.BluRay.REMUX.HEVC.DTS-HD.MA.TrueHD.7.1.Atmos-FGT
  111. Language                                 : English
  112. Service kind                             : Complete Main
  113. Default                                  : No
  114. Forced                                   : No

  115. Audio #5
  116. ID                                       : 6
  117. Format                                   : AC-3
  118. Format/Info                              : Audio Coding 3
  119. Commercial name                          : Dolby Digital
  120. Codec ID                                 : A_AC3
  121. Duration                                 : 1 h 33 min
  122. Bit rate mode                            : Constant
  123. Bit rate                                 : 448 kb/s
  124. Channel(s)                               : 6 channels
  125. Channel layout                           : L R C LFE Ls Rs
  126. Sampling rate                            : 48.0 kHz
  127. Frame rate                               : 31.250 FPS (1536 SPF)
  128. Bit depth                                : 16 bits
  129. Compression mode                         : Lossy
  130. Stream size                              : 299 MiB (1%)
  131. Title                                    : Stuber.2019.2160p.BluRay.REMUX.HEVC.DTS-HD.MA.TrueHD.7.1.Atmos-FGT
  132. Language                                 : Spanish
  133. Service kind                             : Complete Main
  134. Default                                  : No
  135. Forced                                   : No

  136. Audio #6
  137. ID                                       : 7
  138. Format                                   : DTS
  139. Format/Info                              : Digital Theater Systems
  140. Codec ID                                 : A_DTS
  141. Duration                                 : 1 h 33 min
  142. Bit rate mode                            : Constant
  143. Bit rate                                 : 768 kb/s
  144. Channel(s)                               : 6 channels
  145. Channel layout                           : C L R Ls Rs LFE
  146. Sampling rate                            : 48.0 kHz
  147. Frame rate                               : 93.750 FPS (512 SPF)
  148. Bit depth                                : 24 bits
  149. Compression mode                         : Lossy
  150. Stream size                              : 513 MiB (1%)
  151. Title                                    : Stuber.2019.2160p.BluRay.REMUX.HEVC.DTS-HD.MA.TrueHD.7.1.Atmos-FGT
  152. Language                                 : French
  153. Default                                  : No
  154. Forced                                   : No

  155. Audio #7
  156. ID                                       : 8
  157. Format                                   : DTS
  158. Format/Info                              : Digital Theater Systems
  159. Codec ID                                 : A_DTS
  160. Duration                                 : 1 h 33 min
  161. Bit rate mode                            : Constant
  162. Bit rate                                 : 768 kb/s
  163. Channel(s)                               : 6 channels
  164. Channel layout                           : C L R Ls Rs LFE
  165. Sampling rate                            : 48.0 kHz
  166. Frame rate                               : 93.750 FPS (512 SPF)
  167. Bit depth                                : 24 bits
  168. Compression mode                         : Lossy
  169. Stream size                              : 513 MiB (1%)
  170. Title                                    : Stuber.2019.2160p.BluRay.REMUX.HEVC.DTS-HD.MA.TrueHD.7.1.Atmos-FGT
  171. Language                                 : Spanish
  172. Default                                  : No
  173. Forced                                   : No

  174. Audio #8
  175. ID                                       : 9
  176. Format                                   : DTS
  177. Format/Info                              : Digital Theater Systems
  178. Codec ID                                 : A_DTS
  179. Duration                                 : 1 h 33 min
  180. Bit rate mode                            : Constant
  181. Bit rate                                 : 768 kb/s
  182. Channel(s)                               : 6 channels
  183. Channel layout                           : C L R Ls Rs LFE
  184. Sampling rate                            : 48.0 kHz
  185. Frame rate                               : 93.750 FPS (512 SPF)
  186. Bit depth                                : 24 bits
  187. Compression mode                         : Lossy
  188. Stream size                              : 513 MiB (1%)
  189. Title                                    : Stuber.2019.2160p.BluRay.REMUX.HEVC.DTS-HD.MA.TrueHD.7.1.Atmos-FGT
  190. Language                                 : German
  191. Default                                  : No
  192. Forced                                   : No

  193. Audio #9
  194. ID                                       : 10
  195. Format                                   : DTS
  196. Format/Info                              : Digital Theater Systems
  197. Codec ID                                 : A_DTS
  198. Duration                                 : 1 h 33 min
  199. Bit rate mode                            : Constant
  200. Bit rate                                 : 768 kb/s
  201. Channel(s)                               : 6 channels
  202. Channel layout                           : C L R Ls Rs LFE
  203. Sampling rate                            : 48.0 kHz
  204. Frame rate                               : 93.750 FPS (512 SPF)
  205. Bit depth                                : 24 bits
  206. Compression mode                         : Lossy
  207. Stream size                              : 513 MiB (1%)
  208. Title                                    : Stuber.2019.2160p.BluRay.REMUX.HEVC.DTS-HD.MA.TrueHD.7.1.Atmos-FGT
  209. Language                                 : Italian
  210. Default                                  : No
  211. Forced                                   : No

  212. Audio #10
  213. ID                                       : 11
  214. Format                                   : AC-3
  215. Format/Info                              : Audio Coding 3
  216. Commercial name                          : Dolby Digital
  217. Codec ID                                 : A_AC3
  218. Duration                                 : 1 h 33 min
  219. Bit rate mode                            : Constant
  220. Bit rate                                 : 448 kb/s
  221. Channel(s)                               : 6 channels
  222. Channel layout                           : L R C LFE Ls Rs
  223. Sampling rate                            : 48.0 kHz
  224. Frame rate                               : 31.250 FPS (1536 SPF)
  225. Bit depth                                : 16 bits
  226. Compression mode                         : Lossy
  227. Stream size                              : 299 MiB (1%)
  228. Title                                    : Stuber.2019.2160p.BluRay.REMUX.HEVC.DTS-HD.MA.TrueHD.7.1.Atmos-FGT
  229. Language                                 : Czech
  230. Service kind                             : Complete Main
  231. Default                                  : No
  232. Forced                                   : No

  233. Audio #11
  234. ID                                       : 12
  235. Format                                   : AC-3
  236. Format/Info                              : Audio Coding 3
  237. Commercial name                          : Dolby Digital
  238. Codec ID                                 : A_AC3
  239. Duration                                 : 1 h 33 min
  240. Bit rate mode                            : Constant
  241. Bit rate                                 : 448 kb/s
  242. Channel(s)                               : 6 channels
  243. Channel layout                           : L R C LFE Ls Rs
  244. Sampling rate                            : 48.0 kHz
  245. Frame rate                               : 31.250 FPS (1536 SPF)
  246. Bit depth                                : 16 bits
  247. Compression mode                         : Lossy
  248. Stream size                              : 299 MiB (1%)
  249. Title                                    : Stuber.2019.2160p.BluRay.REMUX.HEVC.DTS-HD.MA.TrueHD.7.1.Atmos-FGT
  250. Language                                 : Hungarian
  251. Service kind                             : Complete Main
  252. Default                                  : No
  253. Forced                                   : No

  254. Audio #12
  255. ID                                       : 13
  256. Format                                   : AC-3
  257. Format/Info                              : Audio Coding 3
  258. Commercial name                          : Dolby Digital
  259. Codec ID                                 : A_AC3
  260. Duration                                 : 1 h 33 min
  261. Bit rate mode                            : Constant
  262. Bit rate                                 : 224 kb/s
  263. Channel(s)                               : 2 channels
  264. Channel layout                           : L R
  265. Sampling rate                            : 48.0 kHz
  266. Frame rate                               : 31.250 FPS (1536 SPF)
  267. Bit depth                                : 16 bits
  268. Compression mode                         : Lossy
  269. Stream size                              : 150 MiB (0%)
  270. Title                                    : Stuber.2019.2160p.BluRay.REMUX.HEVC.DTS-HD.MA.TrueHD.7.1.Atmos-FGT
  271. Language                                 : English
  272. Service kind                             : Complete Main
  273. Default                                  : No
  274. Forced                                   : No

  275. Text #1
  276. ID                                       : 14
  277. Format                                   : UTF-8
  278. Codec ID                                 : S_TEXT/UTF8
  279. Codec ID/Info                            : UTF-8 Plain Text
  280. Duration                                 : 1 h 26 min
  281. Bit rate                                 : 84 b/s
  282. Count of elements                        : 1967
  283. Stream size                              : 54.0 KiB (0%)
  284. Title                                    : English-SRT
  285. Language                                 : English
  286. Default                                  : Yes
  287. Forced                                   : No

  288. Text #2
  289. ID                                       : 15
  290. Format                                   : PGS
  291. Muxing mode                              : zlib
  292. Codec ID                                 : S_HDMV/PGS
  293. Codec ID/Info                            : Picture based subtitle format used on BDs/HD-DVDs
  294. Duration                                 : 1 h 27 min
  295. Bit rate                                 : 62.4 kb/s
  296. Count of elements                        : 4306
  297. Stream size                              : 38.9 MiB (0%)
  298. Title                                    : English-PGS
  299. Language                                 : English
  300. Default                                  : No
  301. Forced                                   : No

  302. Text #3
  303. ID                                       : 16
  304. Format                                   : PGS
  305. Muxing mode                              : zlib
  306. Codec ID                                 : S_HDMV/PGS
  307. Codec ID/Info                            : Picture based subtitle format used on BDs/HD-DVDs
  308. Duration                                 : 1 h 32 min
  309. Bit rate                                 : 47.6 kb/s
  310. Count of elements                        : 3592
  311. Stream size                              : 31.5 MiB (0%)
  312. Title                                    : Spanish-PGS
  313. Language                                 : Spanish
  314. Default                                  : No
  315. Forced                                   : No

  316. Text #4
  317. ID                                       : 17
  318. Format                                   : PGS
  319. Muxing mode                              : zlib
  320. Codec ID                                 : S_HDMV/PGS
  321. Codec ID/Info                            : Picture based subtitle format used on BDs/HD-DVDs
  322. Duration                                 : 1 h 27 min
  323. Bit rate                                 : 611 b/s
  324. Count of elements                        : 34
  325. Stream size                              : 391 KiB (0%)
  326. Title                                    : Spanish-FORCED-PGS
  327. Language                                 : Spanish
  328. Default                                  : No
  329. Forced                                   : No

  330. Text #5
  331. ID                                       : 18
  332. Format                                   : PGS
  333. Muxing mode                              : zlib
  334. Codec ID                                 : S_HDMV/PGS
  335. Codec ID/Info                            : Picture based subtitle format used on BDs/HD-DVDs
  336. Duration                                 : 1 h 32 min
  337. Bit rate                                 : 43.5 kb/s
  338. Count of elements                        : 3572
  339. Stream size                              : 28.8 MiB (0%)
  340. Title                                    : French-PGS
  341. Language                                 : French
  342. Default                                  : No
  343. Forced                                   : No

  344. Text #6
  345. ID                                       : 19
  346. Format                                   : PGS
  347. Muxing mode                              : zlib
  348. Codec ID                                 : S_HDMV/PGS
  349. Codec ID/Info                            : Picture based subtitle format used on BDs/HD-DVDs
  350. Duration                                 : 1 h 27 min
  351. Bit rate                                 : 540 b/s
  352. Count of elements                        : 40
  353. Stream size                              : 346 KiB (0%)
  354. Title                                    : French-FORCED-PGS
  355. Language                                 : French
  356. Default                                  : No
  357. Forced                                   : No

  358. Text #7
  359. ID                                       : 20
  360. Format                                   : PGS
  361. Muxing mode                              : zlib
  362. Codec ID                                 : S_HDMV/PGS
  363. Codec ID/Info                            : Picture based subtitle format used on BDs/HD-DVDs
  364. Duration                                 : 1 h 32 min
  365. Bit rate                                 : 43.9 kb/s
  366. Count of elements                        : 3262
  367. Stream size                              : 29.1 MiB (0%)
  368. Title                                    : Spanish-PGS
  369. Language                                 : Spanish
  370. Default                                  : No
  371. Forced                                   : No

  372. Text #8
  373. ID                                       : 21
  374. Format                                   : PGS
  375. Muxing mode                              : zlib
  376. Codec ID                                 : S_HDMV/PGS
  377. Codec ID/Info                            : Picture based subtitle format used on BDs/HD-DVDs
  378. Duration                                 : 1 h 27 min
  379. Bit rate                                 : 466 b/s
  380. Count of elements                        : 30
  381. Stream size                              : 299 KiB (0%)
  382. Title                                    : Spanish-FORCED-PGS
  383. Language                                 : Spanish
  384. Default                                  : No
  385. Forced                                   : No

  386. Text #9
  387. ID                                       : 22
  388. Format                                   : PGS
  389. Muxing mode                              : zlib
  390. Codec ID                                 : S_HDMV/PGS
  391. Codec ID/Info                            : Picture based subtitle format used on BDs/HD-DVDs
  392. Duration                                 : 1 h 32 min
  393. Bit rate                                 : 41.9 kb/s
  394. Count of elements                        : 2234
  395. Stream size                              : 27.7 MiB (0%)
  396. Title                                    : Danish-PGS
  397. Language                                 : Danish
  398. Default                                  : No
  399. Forced                                   : No

  400. Text #10
  401. ID                                       : 23
  402. Format                                   : PGS
  403. Muxing mode                              : zlib
  404. Codec ID                                 : S_HDMV/PGS
  405. Codec ID/Info                            : Picture based subtitle format used on BDs/HD-DVDs
  406. Duration                                 : 1 h 32 min
  407. Bit rate                                 : 38.9 kb/s
  408. Count of elements                        : 2362
  409. Stream size                              : 25.7 MiB (0%)
  410. Title                                    : Dutch-PGS
  411. Language                                 : Dutch
  412. Default                                  : No
  413. Forced                                   : No

  414. Text #11
  415. ID                                       : 24
  416. Format                                   : PGS
  417. Muxing mode                              : zlib
  418. Codec ID                                 : S_HDMV/PGS
  419. Codec ID/Info                            : Picture based subtitle format used on BDs/HD-DVDs
  420. Duration                                 : 1 h 32 min
  421. Bit rate                                 : 42.0 kb/s
  422. Count of elements                        : 3584
  423. Stream size                              : 27.8 MiB (0%)
  424. Title                                    : Finnish-PGS
  425. Language                                 : Finnish
  426. Default                                  : No
  427. Forced                                   : No

  428. Text #12
  429. ID                                       : 25
  430. Format                                   : PGS
  431. Muxing mode                              : zlib
  432. Codec ID                                 : S_HDMV/PGS
  433. Codec ID/Info                            : Picture based subtitle format used on BDs/HD-DVDs
  434. Duration                                 : 1 h 32 min
  435. Bit rate                                 : 46.3 kb/s
  436. Count of elements                        : 3386
  437. Stream size                              : 30.7 MiB (0%)
  438. Title                                    : German-PGS
  439. Language                                 : German
  440. Default                                  : No
  441. Forced                                   : No

  442. Text #13
  443. ID                                       : 26
  444. Format                                   : PGS
  445. Muxing mode                              : zlib
  446. Codec ID                                 : S_HDMV/PGS
  447. Codec ID/Info                            : Picture based subtitle format used on BDs/HD-DVDs
  448. Duration                                 : 1 h 27 min
  449. Bit rate                                 : 135 b/s
  450. Count of elements                        : 10
  451. Stream size                              : 86.9 KiB (0%)
  452. Title                                    : German-FORCED-PGS
  453. Language                                 : German
  454. Default                                  : No
  455. Forced                                   : No

  456. Text #14
  457. ID                                       : 27
  458. Format                                   : PGS
  459. Muxing mode                              : zlib
  460. Codec ID                                 : S_HDMV/PGS
  461. Codec ID/Info                            : Picture based subtitle format used on BDs/HD-DVDs
  462. Duration                                 : 1 h 32 min
  463. Bit rate                                 : 41.6 kb/s
  464. Count of elements                        : 3624
  465. Stream size                              : 27.5 MiB (0%)
  466. Title                                    : Italian-PGS
  467. Language                                 : Italian
  468. Default                                  : No
  469. Forced                                   : No

  470. Text #15
  471. ID                                       : 28
  472. Format                                   : PGS
  473. Muxing mode                              : zlib
  474. Codec ID                                 : S_HDMV/PGS
  475. Codec ID/Info                            : Picture based subtitle format used on BDs/HD-DVDs
  476. Duration                                 : 1 h 27 min
  477. Bit rate                                 : 625 b/s
  478. Count of elements                        : 48
  479. Stream size                              : 400 KiB (0%)
  480. Title                                    : Italian-FORCED-PGS
  481. Language                                 : Italian
  482. Default                                  : No
  483. Forced                                   : No

  484. Text #16
  485. ID                                       : 29
  486. Format                                   : PGS
  487. Muxing mode                              : zlib
  488. Codec ID                                 : S_HDMV/PGS
  489. Codec ID/Info                            : Picture based subtitle format used on BDs/HD-DVDs
  490. Duration                                 : 1 h 32 min
  491. Bit rate                                 : 44.0 kb/s
  492. Count of elements                        : 3622
  493. Stream size                              : 29.1 MiB (0%)
  494. Title                                    : Norwegian-PGS
  495. Language                                 : Norwegian
  496. Default                                  : No
  497. Forced                                   : No

  498. Text #17
  499. ID                                       : 30
  500. Format                                   : PGS
  501. Muxing mode                              : zlib
  502. Codec ID                                 : S_HDMV/PGS
  503. Codec ID/Info                            : Picture based subtitle format used on BDs/HD-DVDs
  504. Duration                                 : 1 h 32 min
  505. Bit rate                                 : 43.0 kb/s
  506. Count of elements                        : 3620
  507. Stream size                              : 28.5 MiB (0%)
  508. Title                                    : Swedish-PGS
  509. Language                                 : Swedish
  510. Default                                  : No
  511. Forced                                   : No

  512. Text #18
  513. ID                                       : 31
  514. Format                                   : PGS
  515. Muxing mode                              : zlib
  516. Codec ID                                 : S_HDMV/PGS
  517. Codec ID/Info                            : Picture based subtitle format used on BDs/HD-DVDs
  518. Duration                                 : 1 h 32 min
  519. Bit rate                                 : 43.7 kb/s
  520. Count of elements                        : 3626
  521. Stream size                              : 29.0 MiB (0%)
  522. Title                                    : Czech-PGS
  523. Language                                 : Czech
  524. Default                                  : No
  525. Forced                                   : No

  526. Text #19
  527. ID                                       : 32
  528. Format                                   : PGS
  529. Muxing mode                              : zlib
  530. Codec ID                                 : S_HDMV/PGS
  531. Codec ID/Info                            : Picture based subtitle format used on BDs/HD-DVDs
  532. Duration                                 : 1 h 27 min
  533. Bit rate                                 : 531 b/s
  534. Count of elements                        : 36
  535. Stream size                              : 340 KiB (0%)
  536. Title                                    : Czech-FORCED-PGS
  537. Language                                 : Czech
  538. Default                                  : No
  539. Forced                                   : No

  540. Text #20
  541. ID                                       : 33
  542. Format                                   : PGS
  543. Muxing mode                              : zlib
  544. Codec ID                                 : S_HDMV/PGS
  545. Codec ID/Info                            : Picture based subtitle format used on BDs/HD-DVDs
  546. Duration                                 : 1 h 32 min
  547. Bit rate                                 : 44.2 kb/s
  548. Count of elements                        : 3588
  549. Stream size                              : 29.3 MiB (0%)
  550. Title                                    : Hungarian-PGS
  551. Language                                 : Hungarian
  552. Default                                  : No
  553. Forced                                   : No

  554. Text #21
  555. ID                                       : 34
  556. Format                                   : PGS
  557. Muxing mode                              : zlib
  558. Codec ID                                 : S_HDMV/PGS
  559. Codec ID/Info                            : Picture based subtitle format used on BDs/HD-DVDs
  560. Duration                                 : 1 h 27 min
  561. Bit rate                                 : 470 b/s
  562. Count of elements                        : 34
  563. Stream size                              : 301 KiB (0%)
  564. Title                                    : Hungarian-FORCED-PGS
  565. Language                                 : Hungarian
  566. Default                                  : No
  567. Forced                                   : No

  568. Text #22
  569. ID                                       : 35
  570. Format                                   : PGS
  571. Muxing mode                              : zlib
  572. Codec ID                                 : S_HDMV/PGS
  573. Codec ID/Info                            : Picture based subtitle format used on BDs/HD-DVDs
  574. Duration                                 : 1 h 32 min
  575. Bit rate                                 : 29.0 kb/s
  576. Count of elements                        : 3626
  577. Stream size                              : 19.2 MiB (0%)
  578. Title                                    : Korean-PGS
  579. Language                                 : Korean
  580. Default                                  : No
  581. Forced                                   : No

  582. Text #23
  583. ID                                       : 36
  584. Format                                   : PGS
  585. Muxing mode                              : zlib
  586. Codec ID                                 : S_HDMV/PGS
  587. Codec ID/Info                            : Picture based subtitle format used on BDs/HD-DVDs
  588. Duration                                 : 1 h 28 min
  589. Bit rate                                 : 90.7 kb/s
  590. Count of elements                        : 4246
  591. Stream size                              : 57.4 MiB (0%)
  592. Title                                    : English-COMMENTARY-PGS
  593. Language                                 : English
  594. Default                                  : No
  595. Forced                                   : No

  596. Text #24
  597. ID                                       : 37
  598. Format                                   : PGS
  599. Muxing mode                              : zlib
  600. Codec ID                                 : S_HDMV/PGS
  601. Codec ID/Info                            : Picture based subtitle format used on BDs/HD-DVDs
  602. Duration                                 : 1 h 33 min
  603. Bit rate                                 : 71.0 kb/s
  604. Count of elements                        : 3970
  605. Stream size                              : 47.3 MiB (0%)
  606. Title                                    : Spanish-COMMENTARY-PGS
  607. Language                                 : Spanish
  608. Default                                  : No
  609. Forced                                   : No

  610. Text #25
  611. ID                                       : 38
  612. Format                                   : PGS
  613. Muxing mode                              : zlib
  614. Codec ID                                 : S_HDMV/PGS
  615. Codec ID/Info                            : Picture based subtitle format used on BDs/HD-DVDs
  616. Duration                                 : 1 h 33 min
  617. Bit rate                                 : 71.4 kb/s
  618. Count of elements                        : 3964
  619. Stream size                              : 47.6 MiB (0%)
  620. Title                                    : French-COMMENTARY-PGS
  621. Language                                 : French
  622. Default                                  : No
  623. Forced                                   : No

  624. Text #26
  625. ID                                       : 39
  626. Format                                   : PGS
  627. Muxing mode                              : zlib
  628. Codec ID                                 : S_HDMV/PGS
  629. Codec ID/Info                            : Picture based subtitle format used on BDs/HD-DVDs
  630. Duration                                 : 1 h 33 min
  631. Bit rate                                 : 69.5 kb/s
  632. Count of elements                        : 3972
  633. Stream size                              : 46.3 MiB (0%)
  634. Title                                    : Spanish-COMMENTARY-PGS
  635. Language                                 : Spanish
  636. Default                                  : No
  637. Forced                                   : No

  638. Text #27
  639. ID                                       : 40
  640. Format                                   : PGS
  641. Muxing mode                              : zlib
  642. Codec ID                                 : S_HDMV/PGS
  643. Codec ID/Info                            : Picture based subtitle format used on BDs/HD-DVDs
  644. Duration                                 : 1 h 33 min
  645. Bit rate                                 : 68.5 kb/s
  646. Count of elements                        : 3958
  647. Stream size                              : 45.7 MiB (0%)
  648. Title                                    : Danish-COMMENTARY-PGS
  649. Language                                 : Danish
  650. Default                                  : No
  651. Forced                                   : No

  652. Text #28
  653. ID                                       : 41
  654. Format                                   : PGS
  655. Muxing mode                              : zlib
  656. Codec ID                                 : S_HDMV/PGS
  657. Codec ID/Info                            : Picture based subtitle format used on BDs/HD-DVDs
  658. Duration                                 : 1 h 33 min
  659. Bit rate                                 : 63.7 kb/s
  660. Count of elements                        : 3842
  661. Stream size                              : 42.5 MiB (0%)
  662. Title                                    : Dutch-COMMENTARY-PGS
  663. Language                                 : Dutch
  664. Default                                  : No
  665. Forced                                   : No

  666. Text #29
  667. ID                                       : 42
  668. Format                                   : PGS
  669. Muxing mode                              : zlib
  670. Codec ID                                 : S_HDMV/PGS
  671. Codec ID/Info                            : Picture based subtitle format used on BDs/HD-DVDs
  672. Duration                                 : 1 h 33 min
  673. Bit rate                                 : 67.5 kb/s
  674. Count of elements                        : 3962
  675. Stream size                              : 45.0 MiB (0%)
  676. Title                                    : Finnish-COMMENTARY-PGS
  677. Language                                 : Finnish
  678. Default                                  : No
  679. Forced                                   : No

  680. Text #30
  681. ID                                       : 43
  682. Format                                   : PGS
  683. Muxing mode                              : zlib
  684. Codec ID                                 : S_HDMV/PGS
  685. Codec ID/Info                            : Picture based subtitle format used on BDs/HD-DVDs
  686. Duration                                 : 1 h 33 min
  687. Bit rate                                 : 79.2 kb/s
  688. Count of elements                        : 3950
  689. Stream size                              : 52.8 MiB (0%)
  690. Title                                    : German-COMMENTARY-PGS
  691. Language                                 : German
  692. Default                                  : No
  693. Forced                                   : No

  694. Text #31
  695. ID                                       : 44
  696. Format                                   : PGS
  697. Muxing mode                              : zlib
  698. Codec ID                                 : S_HDMV/PGS
  699. Codec ID/Info                            : Picture based subtitle format used on BDs/HD-DVDs
  700. Duration                                 : 1 h 33 min
  701. Bit rate                                 : 71.4 kb/s
  702. Count of elements                        : 3974
  703. Stream size                              : 47.6 MiB (0%)
  704. Title                                    : Italian-COMMENTARY-PGS
  705. Language                                 : Italian
  706. Default                                  : No
  707. Forced                                   : No

  708. Text #32
  709. ID                                       : 45
  710. Format                                   : PGS
  711. Muxing mode                              : zlib
  712. Codec ID                                 : S_HDMV/PGS
  713. Codec ID/Info                            : Picture based subtitle format used on BDs/HD-DVDs
  714. Duration                                 : 1 h 33 min
  715. Bit rate                                 : 68.9 kb/s
  716. Count of elements                        : 3974
  717. Stream size                              : 45.9 MiB (0%)
  718. Title                                    : Norwegian-COMMENTARY-PGS
  719. Language                                 : Norwegian
  720. Default                                  : No
  721. Forced                                   : No

  722. Text #33
  723. ID                                       : 46
  724. Format                                   : PGS
  725. Muxing mode                              : zlib
  726. Codec ID                                 : S_HDMV/PGS
  727. Codec ID/Info                            : Picture based subtitle format used on BDs/HD-DVDs
  728. Duration                                 : 1 h 33 min
  729. Bit rate                                 : 64.3 kb/s
  730. Count of elements                        : 3974
  731. Stream size                              : 42.9 MiB (0%)
  732. Title                                    : Swedish-COMMENTARY-PGS
  733. Language                                 : Swedish
  734. Default                                  : No
  735. Forced                                   : No

  736. Text #34
  737. ID                                       : 47
  738. Format                                   : PGS
  739. Muxing mode                              : zlib
  740. Codec ID                                 : S_HDMV/PGS
  741. Codec ID/Info                            : Picture based subtitle format used on BDs/HD-DVDs
  742. Duration                                 : 1 h 33 min
  743. Bit rate                                 : 45.0 kb/s
  744. Count of elements                        : 3976
  745. Stream size                              : 30.0 MiB (0%)
  746. Title                                    : Korean-PGS
  747. Language                                 : Korean
  748. Default                                  : No
  749. Forced                                   : No

  750. Menu
  751. 00:00:00.000                             : en:Chapter 01
  752. 00:05:52.643                             : en:Chapter 02
  753. 00:09:56.846                             : en:Chapter 03
  754. 00:14:14.854                             : en:Chapter 04
  755. 00:17:30.591                             : en:Chapter 05
  756. 00:19:46.059                             : en:Chapter 06
  757. 00:22:40.275                             : en:Chapter 07
  758. 00:27:33.401                             : en:Chapter 08
  759. 00:31:30.680                             : en:Chapter 09
  760. 00:33:18.955                             : en:Chapter 10
  761. 00:35:39.887                             : en:Chapter 11
  762. 00:40:13.035                             : en:Chapter 12
  763. 00:45:05.202                             : en:Chapter 13
  764. 00:49:10.113                             : en:Chapter 14
  765. 00:52:36.987                             : en:Chapter 15
  766. 00:56:46.111                             : en:Chapter 16
  767. 01:01:54.001                             : en:Chapter 17
  768. 01:05:43.397                             : en:Chapter 18
  769. 01:08:37.196                             : en:Chapter 19
  770. 01:13:31.156                             : en:Chapter 20
  771. 01:16:44.516                             : en:Chapter 21
  772. 01:19:07.200                             : en:Chapter 22
  773. 01:23:54.779                             : en:Chapter 23
  774. 01:27:49.597                             : en:Chapter 24
复制代码

优步危机/斯图伯 Stuber.2019.2160p.BluRay.REMUX.HEVC.DTS-HD.MA.TrueHD.7.1.Atmos-FGT 52.45GB-2.png 优步危机/斯图伯 Stuber.2019.2160p.BluRay.REMUX.HEVC.DTS-HD.MA.TrueHD.7.1.Atmos-FGT 52.45GB-3.png 优步危机/斯图伯 Stuber.2019.2160p.BluRay.REMUX.HEVC.DTS-HD.MA.TrueHD.7.1.Atmos-FGT 52.45GB-4.png







本帖隐藏的下载地址需要VIP会员才可阅读,您需要升级才可阅读,点击这里升级VIP
VIP会员免费任意下载本站所有资源!---点击开通
回复

使用道具 举报

懒得打字嘛,点击右侧快捷回复 【右侧内容,后台自定义】
您需要登录后才可以回帖 登录 | 立即注册

本版积分规则

QQ|Archiver|手机版|小黑屋| 中国高清网 |网站地图

GMT+8, 2019-10-24 07:24 , Processed in 0.450576 second(s), 39 queries .

Powered by HDchina X3.4

Copyright 2017-2019©HDchina.All right reserved

返回顶部 联系我们