查看: 788|回复: 7

[10bit.HDR] 奇异博士 Doctor.Strange.2016.2160p.UHD.BluRay.X265.10bit.HDR.TrueHD.7.1.Atmos-TERMiNAL 8.83GB

[复制链接]

 成长值: 6410

级别:资源管理组

注册时间
2017-10-20
最后登录
2020-8-7
听众
1
收听
0
主题
100960
蓝光币
179136 枚
贡献
21715 点
发表于 2019-9-29 20:29:46 | 显示全部楼层 |阅读模式
奇异博士 Doctor.Strange.2016.2160p.UHD.BluRay.X265.10bit.HDR.TrueHD.7.1.Atmos-TERMiNAL 8.83GB-1.png

译  名 奇异博士 / Dr. Strange / 史奇医生 / 史特兰奇博士 / 奇异医生 / 希奇博士 / 怪奇医生 / 斯特兰奇博士
片  名 Doctor Strange
年  代 2016
产  地 美国
类  别 行动 / 奇异 / 冒险
语  言 英语
上映日期 2016-10-25(英国) / 2016-11-04(中国大陆/美国)
IMDb评分  7.5/10 from 534070 users
IMDb链接  http://www.imdb.com/title/tt1211837
豆瓣评分 7.6/10 from 432767 users
豆瓣链接 https://movie.douban.com/subject/3025375/
片  长 115分钟
导  演 斯科特·德瑞克森 Scott Derrickson
编  剧 史蒂夫·迪特寇 Steve Ditko / 托马斯·迪恩·唐纳利 Thomas Dean Donnelly / 斯坦·李 Stan Lee / 乔·斯派茨 Jon Spaihts / Joshua Oppenheimer
主  演 本尼迪克特·康伯巴奇 Benedict Cumberbatch
       蒂尔达·斯文顿 Tilda Swinton
       麦斯·米科尔森 Mads Mikkelsen
       切瓦特·埃加福特 Chiwetel Ejiofor
       瑞秋·麦克亚当斯 Rachel McAdams
       迈克尔·斯图巴 Michael Stuhlbarg
       本尼迪克特·王 Benedict Wong
       本杰明·布拉特 Benjamin Bratt
       斯科特·阿金斯 Scott Adkins
       Zara Phythian
       阿拉·萨菲 Alaa Safi


标  签 漫威 | 超级豪杰 | 美国 | 科幻 | 奇异 | 2016 | 漫画改编 | 行动

简  介  

  斯特兰奇博士(本尼迪克特·康伯巴奇 Benedict Cumberbatch 饰)是一位外科手术医生,他具有着高明的智商和精湛的身手,是医院甚至全部医学界的传奇人物。某一日,斯特兰奇博士遭受了一场可怕的车祸,虽然保住了双手,但这双手遍体鳞伤不住颤抖,这也就意味着,他再也不能拿起手术刀,站在无影灯下了。
  斯特兰奇博士的生活就此落空了意义堕入了失望当中,他决议远赴尼泊尔,寻觅传闻中可以治愈他双手的奥秘气力。在尼泊尔,露宿风餐的斯特兰奇博士拜入了奥秘的古一法师(蒂尔达·斯文顿 Tilda Swinton 饰)门下,成为了其门生,与此同时,古一法师已经的门生卡西利亚斯(麦斯·米科尔森 饰)亦在虎视眈眈,诡计完成他获得永生的大业。

获奖情况  

  第89届奥斯卡金像奖(2017)
  最好视觉结果(提名) 斯特凡·切雷蒂 / 文森特·西雷利 / 理查德·布拉夫 / 保罗·科博尔德

  第70届英国电影学院奖(2017)
  电影奖 最好化装/发型(提名) Jeremy Woodhead
  电影奖 最好艺术指导(提名) John Bush / 查尔斯·伍德
  电影奖 最好特别视觉结果(提名) 乔纳森·福克纳尔 / 斯特凡·切雷蒂 / 保罗·科博尔德 / 理查德·布拉夫

  第44届动画安妮奖(2017)
  最好真人电影动画结果

  第23届美国演员工会奖(2017)
  电影最好特技群戏(提名)

  第21届美国艺术指导工会奖(2017)
  电影奖 最好空想电影艺术指导(提名)

  第19届美国打扮设想工会奖(2017)
  科幻/奇异题材电影最好打扮设想

  第15届美国视觉结果协会奖(2017)
  最好殊效电影视觉结果(提名)
  最好真人电影CG布景
  最好电影虚拟摄影(提名)
  最好真人电影模拟动画结果(提名)
  最好电影视觉结果分解(提名)

  第53届美国声音结果协会奖(2017)
  真人电影最好音效(提名)

  第22届美国批评家挑选电影奖(2017)
  最好行动片(提名)
  行动片最好男配角(提名) 本尼迪克特·康伯巴奇
  行动片最好女配角(提名) 蒂尔达·斯文顿
  最好科幻/可骇片(提名)
  最好发型化装(提名)
  最好视觉结果(提名)

  第21届金卫星奖(2017)
  电影部分 最好视觉结果(提名) 斯特凡·切雷蒂 / 文森特·西雷利 / 保罗·科博尔德 / 理查德·布拉夫
  电影部分 最好打扮设想(提名) 亚历山德拉·伯恩

  第20届好莱坞电影奖(2016)
  年度视觉结果

  第3届豆瓣电影年度榜单(2016)
  评分最高的外语电影(提名)
  评分最高的科幻/行动片(提名)
  11月最受关注电影

  1. Video
  2. ID                                       : 1
  3. Format                                   : HEVC
  4. Format/Info                              : High Efficiency Video Coding
  5. Format profile                           : Main 10@L5.1@High
  6. HDR format                               : SMPTE ST 2086, HDR10 compatible
  7. Codec ID                                 : V_MPEGH/ISO/HEVC
  8. Duration                                 : 1 h 54 min
  9. Bit rate                                 : 5 348 kb/s
  10. Width                                    : 3 840 pixels
  11. Height                                   : 1 608 pixels
  12. Display aspect ratio                     : 2.40:1
  13. Frame rate mode                          : Constant
  14. Frame rate                               : 23.976 (24000/1001) FPS
  15. Color space                              : YUV
  16. Chroma subsampling                       : 4:2:0 (Type 2)
  17. Bit depth                                : 10 bits
  18. Bits/(Pixel*Frame)                       : 0.036
  19. Stream size                              : 4.29 GiB (49%)
  20. Writing library                          : x265 3.1+11-de920e0a3183:[Windows][GCC 6.3.0][64 bit] 10bit
  21. Encoding settings                        : cpuid=1176575 / frame-threads=5 / numa-pools=36 / wpp / no-pmode / no-pme / no-psnr / no-ssim / log-level=2 / input-csp=1 / input-res=3840x1608 / interlace=0 / total-frames=165401 / level-idc=51 / high-tier=1 / uhd-bd=0 / ref=4 / no-allow-non-conformance / repeat-headers / annexb / aud / hrd / info / hash=0 / no-temporal-layers / no-open-gop / min-keyint=1 / keyint=24 / gop-lookahead=0 / bframes=4 / b-adapt=2 / b-pyramid / bframe-bias=0 / rc-lookahead=25 / lookahead-slices=4 / scenecut=40 / radl=0 / no-splice / no-intra-refresh / ctu=64 / min-cu-size=8 / rect / no-amp / max-tu-size=32 / tu-inter-depth=1 / tu-intra-depth=1 / limit-tu=0 / rdoq-level=2 / dynamic-rd=0.00 / no-ssim-rd / signhide / no-tskip / nr-intra=0 / nr-inter=0 / no-constrained-intra / no-strong-intra-smoothing / max-merge=3 / limit-refs=3 / limit-modes / me=3 / subme=3 / merange=57 / temporal-mvp / no-hme / weightp / no-weightb / no-analyze-src-pics / deblock=-3:-3 / no-sao / no-sao-non-deblock / rd=4 / no-early-skip / rskip / no-fast-intra / no-tskip-fast / no-cu-lossless / no-b-intra / no-splitrd-skip / rdpenalty=0 / psy-rd=2.00 / psy-rdoq=1.00 / no-rd-refine / no-lossless / cbqpoffs=0 / crqpoffs=0 / rc=crf / crf=17.0 / qcomp=0.60 / qpstep=4 / stats-write=0 / stats-read=0 / vbv-maxrate=160000 / vbv-bufsize=160000 / vbv-init=0.9 / crf-max=0.0 / crf-min=0.0 / ipratio=1.40 / pbratio=1.30 / aq-mode=2 / aq-strength=1.00 / cutree / zone-count=0 / no-strict-cbr / qg-size=32 / no-rc-grain / qpmax=69 / qpmin=0 / no-const-vbv / sar=1 / overscan=0 / videoformat=5 / range=0 / colorprim=9 / transfer=16 / colormatrix=9 / chromaloc=1 / chromaloc-top=2 / chromaloc-bottom=2 / display-window=0 / master-display=G(13250,34500)B(7500,3000)R(34000,16000)WP(15635,16450)L(40000000,50)cll=577,512 / min-luma=0 / max-luma=1023 / log2-max-poc-lsb=8 / vui-timing-info / vui-hrd-info / slices=1 / no-opt-qp-pps / no-opt-ref-list-length-pps / no-multi-pass-opt-rps / scenecut-bias=0.05 / no-opt-cu-delta-qp / no-aq-motion / hdr / hdr-opt / no-dhdr10-opt / no-idr-recovery-sei / analysis-reuse-level=5 / scale-factor=0 / refine-intra=0 / refine-inter=0 / refine-mv=0 / refine-ctu-distortion=0 / no-limit-sao / ctu-info=0 / no-lowpass-dct / refine-analysis-type=0 / copy-pic=1 / max-ausize-factor=1.0 / no-dynamic-refine / no-single-sei / no-hevc-aq / no-svt / no-field / qp-adaptation-range=1.00
  22. Default                                  : Yes
  23. Forced                                   : No
  24. Color range                              : Limited
  25. Color primaries                          : BT.2020
  26. Transfer characteristics                 : PQ
  27. Matrix coefficients                      : BT.2020 non-constant
  28. Mastering display color primaries        : Display P3
  29. Mastering display luminance              : min: 0.0050 cd/m2, max: 4000 cd/m2
  30. Maximum Content Light Level              : 577 cd/m2
  31. Maximum Frame-Average Light Level        : 512 cd/m2

  32. Audio #1
  33. ID                                       : 2
  34. Format                                   : MLP FBA 16-ch
  35. Format/Info                              : Meridian Lossless Packing FBA with 16-channel presentation
  36. Commercial name                          : Dolby TrueHD with Dolby Atmos
  37. Codec ID                                 : A_TRUEHD
  38. Duration                                 : 1 h 54 min
  39. Bit rate mode                            : Variable
  40. Bit rate                                 : 4 784 kb/s
  41. Maximum bit rate                         : 7 317 kb/s
  42. Channel(s)                               : 8 channels
  43. Channel layout                           : L R C LFE Ls Rs Lb Rb
  44. Sampling rate                            : 48.0 kHz
  45. Frame rate                               : 1 200.000 FPS (40 SPF)
  46. Compression mode                         : Lossless
  47. Stream size                              : 3.84 GiB (44%)
  48. Language                                 : English
  49. Default                                  : Yes
  50. Forced                                   : No
  51. Number of dynamic objects                : 13
  52. Bed channel count                        : 1 channel
  53. Bed channel configuration                : LFE

  54. Audio #2
  55. ID                                       : 3
  56. Format                                   : AC-3
  57. Format/Info                              : Audio Coding 3
  58. Commercial name                          : Dolby Digital
  59. Codec ID                                 : A_AC3
  60. Duration                                 : 1 h 54 min
  61. Bit rate mode                            : Constant
  62. Bit rate                                 : 640 kb/s
  63. Channel(s)                               : 6 channels
  64. Channel layout                           : L R C LFE Ls Rs
  65. Sampling rate                            : 48.0 kHz
  66. Frame rate                               : 31.250 FPS (1536 SPF)
  67. Bit depth                                : 16 bits
  68. Compression mode                         : Lossy
  69. Stream size                              : 526 MiB (6%)
  70. Language                                 : English
  71. Service kind                             : Complete Main
  72. Default                                  : No
  73. Forced                                   : No

  74. Text #1
  75. ID                                       : 4
  76. Format                                   : PGS
  77. Muxing mode                              : zlib
  78. Codec ID                                 : S_HDMV/PGS
  79. Codec ID/Info                            : Picture based subtitle format used on BDs/HD-DVDs
  80. Duration                                 : 1 h 54 min
  81. Bit rate                                 : 33.2 kb/s
  82. Count of elements                        : 3168
  83. Stream size                              : 27.1 MiB (0%)
  84. Title                                    : English SDH
  85. Language                                 : English
  86. Default                                  : No
  87. Forced                                   : No

  88. Text #2
  89. ID                                       : 5
  90. Format                                   : PGS
  91. Muxing mode                              : zlib
  92. Codec ID                                 : S_HDMV/PGS
  93. Codec ID/Info                            : Picture based subtitle format used on BDs/HD-DVDs
  94. Duration                                 : 1 h 52 min
  95. Bit rate                                 : 29.6 kb/s
  96. Count of elements                        : 2608
  97. Stream size                              : 23.8 MiB (0%)
  98. Title                                    : French
  99. Language                                 : French
  100. Default                                  : No
  101. Forced                                   : No

  102. Text #3
  103. ID                                       : 6
  104. Format                                   : PGS
  105. Muxing mode                              : zlib
  106. Codec ID                                 : S_HDMV/PGS
  107. Codec ID/Info                            : Picture based subtitle format used on BDs/HD-DVDs
  108. Duration                                 : 1 h 52 min
  109. Bit rate                                 : 24.8 kb/s
  110. Count of elements                        : 2344
  111. Stream size                              : 20.0 MiB (0%)
  112. Title                                    : French
  113. Language                                 : French
  114. Default                                  : No
  115. Forced                                   : No

  116. Text #4
  117. ID                                       : 7
  118. Format                                   : PGS
  119. Muxing mode                              : zlib
  120. Codec ID                                 : S_HDMV/PGS
  121. Codec ID/Info                            : Picture based subtitle format used on BDs/HD-DVDs
  122. Duration                                 : 1 h 52 min
  123. Bit rate                                 : 28.2 kb/s
  124. Count of elements                        : 2562
  125. Stream size                              : 22.6 MiB (0%)
  126. Title                                    : Spanish
  127. Language                                 : Spanish
  128. Default                                  : No
  129. Forced                                   : No

  130. Text #5
  131. ID                                       : 8
  132. Format                                   : PGS
  133. Muxing mode                              : zlib
  134. Codec ID                                 : S_HDMV/PGS
  135. Codec ID/Info                            : Picture based subtitle format used on BDs/HD-DVDs
  136. Duration                                 : 1 h 52 min
  137. Bit rate                                 : 30.6 kb/s
  138. Count of elements                        : 2548
  139. Stream size                              : 24.6 MiB (0%)
  140. Title                                    : German
  141. Language                                 : German
  142. Default                                  : No
  143. Forced                                   : No

  144. Text #6
  145. ID                                       : 9
  146. Format                                   : PGS
  147. Muxing mode                              : zlib
  148. Codec ID                                 : S_HDMV/PGS
  149. Codec ID/Info                            : Picture based subtitle format used on BDs/HD-DVDs
  150. Duration                                 : 1 h 52 min
  151. Bit rate                                 : 28.5 kb/s
  152. Count of elements                        : 2556
  153. Stream size                              : 22.9 MiB (0%)
  154. Title                                    : Italian
  155. Language                                 : Italian
  156. Default                                  : No
  157. Forced                                   : No

  158. Text #7
  159. ID                                       : 10
  160. Format                                   : PGS
  161. Muxing mode                              : zlib
  162. Codec ID                                 : S_HDMV/PGS
  163. Codec ID/Info                            : Picture based subtitle format used on BDs/HD-DVDs
  164. Duration                                 : 1 h 52 min
  165. Bit rate                                 : 19.5 kb/s
  166. Count of elements                        : 2236
  167. Stream size                              : 15.7 MiB (0%)
  168. Title                                    : Japanese
  169. Language                                 : Japanese
  170. Default                                  : No
  171. Forced                                   : No

  172. Text #8
  173. ID                                       : 11
  174. Format                                   : PGS
  175. Muxing mode                              : zlib
  176. Codec ID                                 : S_HDMV/PGS
  177. Codec ID/Info                            : Picture based subtitle format used on BDs/HD-DVDs
  178. Duration                                 : 1 h 52 min
  179. Bit rate                                 : 26.9 kb/s
  180. Count of elements                        : 2562
  181. Stream size                              : 21.6 MiB (0%)
  182. Title                                    : Norwegian
  183. Language                                 : Norwegian
  184. Default                                  : No
  185. Forced                                   : No

  186. Text #9
  187. ID                                       : 12
  188. Format                                   : PGS
  189. Muxing mode                              : zlib
  190. Codec ID                                 : S_HDMV/PGS
  191. Codec ID/Info                            : Picture based subtitle format used on BDs/HD-DVDs
  192. Duration                                 : 1 h 52 min
  193. Bit rate                                 : 25.1 kb/s
  194. Count of elements                        : 1768
  195. Stream size                              : 20.1 MiB (0%)
  196. Title                                    : Swedish
  197. Language                                 : Swedish
  198. Default                                  : No
  199. Forced                                   : No

  200. Text #10
  201. ID                                       : 13
  202. Format                                   : PGS
  203. Muxing mode                              : zlib
  204. Codec ID                                 : S_HDMV/PGS
  205. Codec ID/Info                            : Picture based subtitle format used on BDs/HD-DVDs
  206. Duration                                 : 1 h 33 min
  207. Bit rate                                 : 430 b/s
  208. Count of elements                        : 52
  209. Stream size                              : 295 KiB (0%)
  210. Title                                    : French
  211. Language                                 : French
  212. Default                                  : No
  213. Forced                                   : No

  214. Text #11
  215. ID                                       : 14
  216. Format                                   : PGS
  217. Muxing mode                              : zlib
  218. Codec ID                                 : S_HDMV/PGS
  219. Codec ID/Info                            : Picture based subtitle format used on BDs/HD-DVDs
  220. Duration                                 : 1 h 33 min
  221. Bit rate                                 : 45 b/s
  222. Count of elements                        : 4
  223. Stream size                              : 31.2 KiB (0%)
  224. Title                                    : French
  225. Language                                 : French
  226. Default                                  : No
  227. Forced                                   : No

  228. Text #12
  229. ID                                       : 15
  230. Format                                   : PGS
  231. Muxing mode                              : zlib
  232. Codec ID                                 : S_HDMV/PGS
  233. Codec ID/Info                            : Picture based subtitle format used on BDs/HD-DVDs
  234. Duration                                 : 1 h 33 min
  235. Bit rate                                 : 83 b/s
  236. Count of elements                        : 6
  237. Stream size                              : 57.3 KiB (0%)
  238. Title                                    : Spanish
  239. Language                                 : Spanish
  240. Default                                  : No
  241. Forced                                   : No

  242. Text #13
  243. ID                                       : 16
  244. Format                                   : PGS
  245. Muxing mode                              : zlib
  246. Codec ID                                 : S_HDMV/PGS
  247. Codec ID/Info                            : Picture based subtitle format used on BDs/HD-DVDs
  248. Duration                                 : 3 s 420 ms
  249. Bit rate                                 : 35.9 kb/s
  250. Count of elements                        : 2
  251. Stream size                              : 15.0 KiB (0%)
  252. Title                                    : Italian
  253. Language                                 : Italian
  254. Default                                  : No
  255. Forced                                   : No

  256. Text #14
  257. ID                                       : 17
  258. Format                                   : PGS
  259. Muxing mode                              : zlib
  260. Codec ID                                 : S_HDMV/PGS
  261. Codec ID/Info                            : Picture based subtitle format used on BDs/HD-DVDs
  262. Duration                                 : 1 h 33 min
  263. Bit rate                                 : 59 b/s
  264. Count of elements                        : 6
  265. Stream size                              : 40.9 KiB (0%)
  266. Title                                    : Japanese
  267. Language                                 : Japanese
  268. Default                                  : No
  269. Forced                                   : No
复制代码
151233prqlluusws44qnrl.png 151235yepqqq3perp5qen3.png 151240g3ieh3u13z42yjum.png




本帖隐藏的下载地址需要VIP会员才可阅读,您需要升级才可阅读,点击这里升级VIP

回复

使用道具 举报

级别:普通观众 Lv.2

注册时间
2019-9-24
最后登录
2020-3-1
听众
2
收听
0
主题
0
蓝光币
51 枚
贡献
0 点
发表于 2019-10-1 19:10:13 | 显示全部楼层

感谢楼主分享
回复

使用道具 举报

级别:专业龙套 Lv.4

注册时间
2019-12-9
最后登录
2020-8-2
听众
6
收听
0
主题
0
蓝光币
216 枚
贡献
0 点
QQ
发表于 2020-1-13 20:08:22 | 显示全部楼层
楼主发贴辛苦了,谢谢楼主分享!我觉得中国高清电影网是注册对了!
回复

使用道具 举报

级别:群众演员 Lv.3

注册时间
2020-1-3
最后登录
2020-7-4
听众
2
收听
0
主题
0
蓝光币
175 枚
贡献
0 点
发表于 2020-1-15 10:46:00 | 显示全部楼层
楼主发贴辛苦了,谢谢楼主分享!我觉得中国高清电影网是注册对了!
回复

使用道具 举报

级别:初级观众 Lv.1

注册时间
2020-3-15
最后登录
2020-3-15
听众
4
收听
0
主题
0
蓝光币
3 枚
贡献
0 点
QQ
发表于 2020-3-15 08:21:14 | 显示全部楼层
感谢分享~
回复

使用道具 举报

级别:荣升主角 Lv.5

注册时间
2020-2-7
最后登录
2020-6-24
听众
2
收听
0
主题
0
蓝光币
320 枚
贡献
0 点
发表于 2020-3-15 13:27:18 | 显示全部楼层
楼主发贴辛苦了,谢谢楼主分享!我觉得中国高清电影网是注册对了!
回复

使用道具 举报

级别:初级观众 Lv.1

注册时间
2018-11-1
最后登录
2020-4-14
听众
9
收听
0
主题
0
蓝光币
6 枚
贡献
0 点
QQ
发表于 2020-3-20 19:32:11 | 显示全部楼层

楼主太厉害了!楼主,电影应该很好看我觉得中国高清电影网真是个好地方!
回复

使用道具 举报

级别:荣升主角 Lv.5

注册时间
2020-2-7
最后登录
2020-6-24
听众
2
收听
0
主题
0
蓝光币
320 枚
贡献
0 点
发表于 2020-3-20 20:08:30 | 显示全部楼层
楼主发贴辛苦了,谢谢楼主分享!我觉得中国高清电影网是注册对了!
回复

使用道具 举报

懒得打字嘛,点击右侧快捷回复 【右侧内容,后台自定义】
您需要登录后才可以回帖 登录 | 立即注册

本版积分规则

Archiver|手机版|小黑屋| 中国高清网 ( ICP备17007870号-2 ) |网站地图 

GMT+8, 2020-8-7 11:59 , Processed in 0.306541 second(s), 40 queries .

Powered by HDchina X3.4

Copyright 2017-2019©HDchina.All right reserved

返回顶部 联系我们