查看: 29|回复: 1

[剧情片] 日光下的葡萄干 A.Raisin.in.the.Sun.2008.1080p.WEBRip.x264-RARBG 2.50GB

[复制链接]

 成长值: 2860

级别:资源管理组

注册时间
2017-10-20
最后登录
2019-10-17
听众
1
收听
0
主题
84967
蓝光币
55499 枚
贡献
9324 点
发表于 2019-9-21 16:16:32 | 显示全部楼层 |阅读模式
p2396068035.jpg

译  名 日光下的葡萄干
片  名 A Raisin in the Sun
年  代 2008
产  地 美国
类  别 剧情
语  言 英语
上映日期 2008-02-25(美国)
IMDb评分  6.5/10 from 1695 users
IMDb链接  http://www.imdb.com/title/tt0808435
豆瓣评分 7.9/10 from 275 users
豆瓣链接 https://movie.douban.com/subject/2979672/
片  长 131分钟
导  演 Kenny Leon
编  剧 Paris Qualles / Lorraine Hansberry
主  演 奥德拉·麦当娜 Audra McDonald
       Sean Combs
       桑娜·莱瑟 Sanaa Lathan


标  签 美国 | 黑人 | 美国电影 | 剧情 | 阳光下的葡萄干 | 家庭 | 电影 | 种族

简  介  

  沃特(吹嘘老爹 Sean 'P. Diddy' Combs 饰)在意外当中获得一笔飞来横财,本来沃特的爷爷归天了,留下了一大笔保险金给他的孩子。沃特洗完更可以操纵这笔钱来停止投资,让钱生钱,可是沃特的妹妹却并不这么想,她希望可以让柏妮莎(桑娜·莱瑟 Sanaa Lathan 饰)拿着这笔钱去实现她想要成为医生的胡想。
  现实上具有这笔钱的安排权的,是丽娜奶奶(菲利西亚·拉斯海德 Phylicia Rashad 饰),她用这笔钱在白人聚居处买了一间屋子,又拨出了一部分送柏妮莎去念书,最初留下一笔钱给沃特投资金融。虽然看似大家都分到了一杯羹,但隐藏在水面之下的题目还多得很。

获奖情况  

  第66届金球奖(2009)
  电视类 最好迷你剧/电视电影(提名)
  1. Video
  2. ID                                       : 1
  3. Format                                   : AVC
  4. Format/Info                              : Advanced Video Codec
  5. Format profile                           : High@L4
  6. Format settings                          : CABAC / 4 Ref Frames
  7. Format settings, CABAC                   : Yes
  8. Format settings, Reference frames        : 4 frames
  9. Codec ID                                 : avc1
  10. Codec ID/Info                            : Advanced Video Coding
  11. Duration                                 : 2 h 11 min
  12. Bit rate                                 : 2 500 kb/s
  13. Width                                    : 1 920 pixels
  14. Height                                   : 1 080 pixels
  15. Display aspect ratio                     : 16:9
  16. Frame rate mode                          : Constant
  17. Frame rate                               : 24.000 FPS
  18. Color space                              : YUV
  19. Chroma subsampling                       : 4:2:0
  20. Bit depth                                : 8 bits
  21. Scan type                                : Progressive
  22. Bits/(Pixel*Frame)                       : 0.050
  23. Stream size                              : 2.29 GiB (92%)
  24. Writing library                          : x264 core 152 r2851M ba24899
  25. Encoding settings                        : cabac=1 / ref=4 / deblock=1:-1:-1 / analyse=0x3:0x113 / me=umh / subme=9 / psy=1 / psy_rd=1.00:0.15 / mixed_ref=1 / me_range=24 / chroma_me=1 / trellis=2 / 8x8dct=1 / cqm=0 / deadzone=21,11 / fast_pskip=1 / chroma_qp_offset=-3 / threads=16 / lookahead_threads=4 / sliced_threads=0 / nr=0 / decimate=1 / interlaced=0 / bluray_compat=0 / constrained_intra=0 / bframes=3 / b_pyramid=2 / b_adapt=2 / b_bias=0 / direct=3 / weightb=1 / open_gop=0 / weightp=2 / keyint=250 / keyint_min=25 / scenecut=40 / intra_refresh=0 / rc_lookahead=50 / rc=2pass / mbtree=1 / bitrate=2500 / ratetol=1.0 / qcomp=0.60 / qpmin=0 / qpmax=69 / qpstep=4 / cplxblur=20.0 / qblur=0.5 / vbv_maxrate=31250 / vbv_bufsize=31250 / nal_hrd=none / filler=0 / ip_ratio=1.40 / aq=3:1.00
  26. Encoded date                             : UTC 2019-09-21 00:36:55
  27. Tagged date                              : UTC 2019-09-21 00:36:55
  28. Codec configuration box                  : avcC

  29. Audio
  30. ID                                       : 2
  31. Format                                   : AAC LC
  32. Format/Info                              : Advanced Audio Codec Low Complexity
  33. Codec ID                                 : mp4a-40-2
  34. Duration                                 : 2 h 11 min
  35. Bit rate mode                            : Constant
  36. Bit rate                                 : 224 kb/s
  37. Channel(s)                               : 2 channels
  38. Channel layout                           : L R
  39. Sampling rate                            : 48.0 kHz
  40. Frame rate                               : 46.875 FPS (1024 SPF)
  41. Compression mode                         : Lossy
  42. Stream size                              : 211 MiB (8%)
  43. Language                                 : English
  44. Default                                  : Yes
  45. Alternate group                          : 1
  46. Encoded date                             : UTC 2019-09-21 00:36:55
  47. Tagged date                              : UTC 2019-09-21 00:36:55
复制代码

日光下的葡萄干 A.Raisin.in.the.Sun.2008.1080p.WEBRip.x264-RARBG 2.50GB-2.png 日光下的葡萄干 A.Raisin.in.the.Sun.2008.1080p.WEBRip.x264-RARBG 2.50GB-3.png 日光下的葡萄干 A.Raisin.in.the.Sun.2008.1080p.WEBRip.x264-RARBG 2.50GB-4.png







VIP会员免费任意下载本站所有资源!---点击开通
回复

使用道具 举报

级别:领衔主演 Lv.6

注册时间
2019-4-24
最后登录
2019-10-17
听众
13
收听
0
主题
0
蓝光币
155 枚
贡献
0 点
发表于 2019-9-23 10:47:17 | 显示全部楼层
楼主发贴辛苦了,谢谢楼主分享!我觉得中国高清电影网是注册对了!
VIP会员免费任意下载本站所有资源!---点击开通
回复

使用道具 举报

懒得打字嘛,点击右侧快捷回复 【右侧内容,后台自定义】
您需要登录后才可以回帖 登录 | 立即注册

本版积分规则

QQ|Archiver|手机版|小黑屋| 中国高清网 |网站地图

GMT+8, 2019-10-18 04:35 , Processed in 0.376918 second(s), 40 queries .

Powered by HDchina X3.4

Copyright 2017-2019©HDchina.All right reserved

返回顶部 联系我们