查看: 24|回复: 1

[剧情片] 小镇话语 The.Talk.of.The.Town.1942.1080p.AMZN.WEBRip.DDP2.0.x264-SbR 11.57GB

[复制链接]

 成长值: 2930

级别:资源管理组

注册时间
2017-10-20
最后登录
2019-10-24
听众
1
收听
0
主题
85436
蓝光币
56824 枚
贡献
9794 点
发表于 2019-9-21 13:41:18 | 显示全部楼层 |阅读模式
小镇话语 The.Talk.of.The.Town.1942.1080p.AMZN.WEBRip.DDP2.0.x264-SbR 11.57GB-1.png

译  名 小镇话语
片  名 The Talk of the Town
年  代 1942
产  地 美国
类  别 剧情 / 笑剧 / 恋爱 / 惊悚
语  言 英语
上映日期 1942-08-20(美国)
IMDb评分  7.5/10 from 6655 users
IMDb链接  http://www.imdb.com/title/tt0035417
豆瓣评分 7.5/10 from 144 users
豆瓣链接 https://movie.douban.com/subject/1297118/
片  长 118分钟
导  演 乔治·史蒂文 George Stevens
编  剧 Dale Van Every / Irwin Shaw / 西德尼·巴其曼 Sidney Buchman / Sidney Harmon
主  演 加里·格兰特 Cary Grant
       琪恩·亚瑟 Jean Arthur
       罗纳德·考尔曼 Ronald Colman


标  签 美国 | 笑剧 | CaryGrant | 1942 | 美国电影 | George_Stevens | 加里·格兰特 | GeorgeStevens

简  介  

  狄尔格在政治上是一个活跃份子,但被毛病起诉,罪名是谋杀当地工场工人,将被履行死刑,他逃狱逃走,受伤后闯入了一位女教师诺拉的家里,没想到她正预备把屋子租给一位名声显赫的法学教授……

获奖情况  

  第15届奥斯卡金像奖(1943)
  最好影片(提名)
  最好原创故事(提名) 西德尼·哈蒙
  最好编剧(提名) 欧文·肖 / 西德尼·巴克曼
  黑白片最好摄影(提名) Ted Tetzlaff
  最好剪辑(提名) Otto Meyer
  黑白片最好艺术指导和室内布景(提名) 莱昂内尔·班克斯 / Fay Babcock / 儒道夫·斯特纳德
  剧情/笑剧片最好配乐(提名) Friedrich Hollaender / Morris Stoloff
  1. Video
  2. ID                                       : 1
  3. Format                                   : AVC
  4. Format/Info                              : Advanced Video Codec
  5. Format profile                           : High@L4
  6. Format settings                          : CABAC / 4 Ref Frames
  7. Format settings, CABAC                   : Yes
  8. Format settings, Reference frames        : 4 frames
  9. Codec ID                                 : V_MPEG4/ISO/AVC
  10. Duration                                 : 1 h 57 min
  11. Bit rate mode                            : Variable
  12. Bit rate                                 : 13.6 Mb/s
  13. Maximum bit rate                         : 15.0 Mb/s
  14. Width                                    : 1 920 pixels
  15. Height                                   : 1 080 pixels
  16. Display aspect ratio                     : 16:9
  17. Frame rate mode                          : Constant
  18. Frame rate                               : 23.976 (24000/1001) FPS
  19. Color space                              : YUV
  20. Chroma subsampling                       : 4:2:0
  21. Bit depth                                : 8 bits
  22. Scan type                                : Progressive
  23. Bits/(Pixel*Frame)                       : 0.274
  24. Stream size                              : 11.2 GiB (96%)
  25. Writing library                          : x264 core 148 r2623 d5b2374
  26. Encoding settings                        : cabac=1 / ref=4 / deblock=1:-1:-1 / analyse=0x3:0x133 / me=umh / subme=9 / psy=1 / psy_rd=1.00:0.15 / mixed_ref=1 / me_range=24 / chroma_me=1 / trellis=2 / 8x8dct=1 / cqm=0 / deadzone=21,11 / fast_pskip=1 / chroma_qp_offset=-3 / threads=34 / lookahead_threads=5 / sliced_threads=0 / nr=150 / decimate=1 / interlaced=0 / bluray_compat=0 / constrained_intra=0 / bframes=8 / b_pyramid=2 / b_adapt=2 / b_bias=0 / direct=3 / weightb=1 / open_gop=0 / weightp=2 / keyint=120 / keyint_min=61 / scenecut=0 / intra_refresh=0 / rc_lookahead=120 / rc=crf / mbtree=1 / crf=18.0 / qcomp=0.60 / qpmin=0 / qpmax=69 / qpstep=4 / vbv_maxrate=15000 / vbv_bufsize=31250 / crf_max=0.0 / nal_hrd=vbr / filler=0 / ip_ratio=1.40 / aq=3:1.00
  27. Language                                 : English
  28. Default                                  : Yes
  29. Forced                                   : No
  30. Color range                              : Limited
  31. Color primaries                          : BT.709
  32. Transfer characteristics                 : BT.709
  33. Matrix coefficients                      : BT.709

  34. Audio
  35. ID                                       : 2
  36. Format                                   : E-AC-3
  37. Format/Info                              : Enhanced AC-3
  38. Commercial name                          : Dolby Digital Plus
  39. Codec ID                                 : A_EAC3
  40. Duration                                 : 1 h 57 min
  41. Bit rate mode                            : Constant
  42. Bit rate                                 : 224 kb/s
  43. Channel(s)                               : 2 channels
  44. Channel layout                           : L R
  45. Sampling rate                            : 48.0 kHz
  46. Frame rate                               : 31.250 FPS (1536 SPF)
  47. Compression mode                         : Lossy
  48. Stream size                              : 188 MiB (2%)
  49. Language                                 : English
  50. Service kind                             : Complete Main
  51. Default                                  : Yes
  52. Forced                                   : No

  53. Text #1
  54. ID                                       : 3
  55. Format                                   : UTF-8
  56. Codec ID                                 : S_TEXT/UTF8
  57. Codec ID/Info                            : UTF-8 Plain Text
  58. Language                                 : English
  59. Default                                  : No
  60. Forced                                   : No

  61. Text #2
  62. ID                                       : 4
  63. Format                                   : UTF-8
  64. Codec ID                                 : S_TEXT/UTF8
  65. Codec ID/Info                            : UTF-8 Plain Text
  66. Title                                    : SDH
  67. Language                                 : English
  68. Default                                  : No
  69. Forced                                   : No
复制代码

小镇话语 The.Talk.of.The.Town.1942.1080p.AMZN.WEBRip.DDP2.0.x264-SbR 11.57GB-2.png 小镇话语 The.Talk.of.The.Town.1942.1080p.AMZN.WEBRip.DDP2.0.x264-SbR 11.57GB-3.png 小镇话语 The.Talk.of.The.Town.1942.1080p.AMZN.WEBRip.DDP2.0.x264-SbR 11.57GB-4.png 小镇话语 The.Talk.of.The.Town.1942.1080p.AMZN.WEBRip.DDP2.0.x264-SbR 11.57GB-5.png 小镇话语 The.Talk.of.The.Town.1942.1080p.AMZN.WEBRip.DDP2.0.x264-SbR 11.57GB-6.png 小镇话语 The.Talk.of.The.Town.1942.1080p.AMZN.WEBRip.DDP2.0.x264-SbR 11.57GB-7.png







VIP会员免费任意下载本站所有资源!---点击开通
回复

使用道具 举报

级别:一举成名 Lv.7

注册时间
2019-4-24
最后登录
2019-10-23
听众
13
收听
0
主题
0
蓝光币
167 枚
贡献
0 点
发表于 2019-9-23 10:53:56 | 显示全部楼层
楼主发贴辛苦了,谢谢楼主分享!我觉得中国高清电影网是注册对了!
VIP会员免费任意下载本站所有资源!---点击开通
回复

使用道具 举报

懒得打字嘛,点击右侧快捷回复 【右侧内容,后台自定义】
您需要登录后才可以回帖 登录 | 立即注册

本版积分规则

QQ|Archiver|手机版|小黑屋| 中国高清网 |网站地图

GMT+8, 2019-10-24 07:47 , Processed in 0.361643 second(s), 39 queries .

Powered by HDchina X3.4

Copyright 2017-2019©HDchina.All right reserved

返回顶部 联系我们