查看: 24|回复: 1

[剧情片] 召唤 The.Summoning.2017.1080p.WEBRip.x264-iNTENSO 3.34GB

[复制链接]

 成长值: 2930

级别:资源管理组

注册时间
2017-10-20
最后登录
2019-10-24
听众
1
收听
0
主题
85436
蓝光币
56824 枚
贡献
9794 点
发表于 2019-9-21 13:39:52 | 显示全部楼层 |阅读模式
134022o6jsslm3d4jlnmd7.png

译  名 呼唤
片  名 The Summoning
年  代 2017
产  地 美国
类  别 剧情 / 悬疑 / 惊悚
语  言 英语
上映日期 2017-01-10
IMDb评分  4.0/10 from 350 users
IMDb链接  http://www.imdb.com/title/tt4762758
豆瓣评分 0/10 from 0 users
豆瓣链接 https://movie.douban.com/subject/26953792/
片  长 87分钟
导  演 Alberto G. Rodriguez
编  剧 Alberto G. Rodriguez
主  演 Eric Roberts
       Leila Almas
       Jaime Zevallos
       Razaaq Adoti
       Rheagan Wallace
       Aaron Perilo


标  签 AfterDark

简  介  

  When a law student uncovers chilling secrets and places her life at risk, a bitter, rough-around-the-edges detective gets assigned to her case.
  1. Video
  2. ID : 1
  3. Format : AVC
  4. Format/Info : Advanced Video Codec
  5. Format profile : High@L4
  6. Format settings : CABAC / 5 Ref Frames
  7. Format settings, CABAC : Yes
  8. Format settings, Reference frames : 5 frames
  9. Codec ID : V_MPEG4/ISO/AVC
  10. Duration : 1 h 27 min
  11. Bit rate : 5 320 kb/s
  12. Width : 1 920 pixels
  13. Height : 806 pixels
  14. Display aspect ratio : 2.40:1
  15. Frame rate mode : Constant
  16. Frame rate : 23.976 (24000/1001) FPS
  17. Color space : YUV
  18. Chroma subsampling : 4:2:0
  19. Bit depth : 8 bits
  20. Scan type : Progressive
  21. Bits/(Pixel*Frame) : 0.143
  22. Stream size : 3.26 GiB (98%)
  23. Writing library : x264 core 155 r2901 7d0ff22
  24. Encoding settings : cabac=1 / ref=5 / deblock=1:-3:-3 / analyse=0x3:0x133 / me=umh / subme=11 / psy=1 / psy_rd=1.05:0.15 / mixed_ref=1 / me_range=16 / chroma_me=1 / trellis=2 / 8x8dct=1 / cqm=0 / deadzone=21,11 / fast_pskip=0 / chroma_qp_offset=-3 / threads=12 / lookahead_threads=1 / sliced_threads=0 / nr=0 / decimate=1 / interlaced=0 / bluray_compat=0 / constrained_intra=0 / bframes=3 / b_pyramid=2 / b_adapt=2 / b_bias=0 / direct=3 / weightb=1 / open_gop=0 / weightp=2 / keyint=250 / keyint_min=24 / scenecut=40 / intra_refresh=0 / rc_lookahead=50 / rc=crf / mbtree=1 / crf=17.0 / qcomp=0.60 / qpmin=0 / qpmax=69 / qpstep=4 / ip_ratio=1.40 / aq=3:0.65
  25. Language : English
  26. Default : Yes
  27. Forced : No

  28. Audio
  29. ID : 2
  30. Format : AAC LC
  31. Format/Info : Advanced Audio Codec Low Complexity
  32. Codec ID : A_AAC-2
  33. Duration : 1 h 27 min
  34. Bit rate : 124 kb/s
  35. Channel(s) : 2 channels
  36. Channel layout : L R
  37. Sampling rate : 48.0 kHz
  38. Frame rate : 46.875 FPS (1024 SPF)
  39. Compression mode : Lossy
  40. Stream size : 77.8 MiB (2%)
  41. Language : English
  42. Default : Yes
  43. Forced : No

  44. Menu
  45. 00:00:00.054 : en:00:00:00.054
复制代码

呼唤 The.Summoning.2017.1080p.WEBRip.x264-iNTENSO 3.34GB-2.png







VIP会员免费任意下载本站所有资源!---点击开通
回复

使用道具 举报

级别:一举成名 Lv.7

注册时间
2019-4-24
最后登录
2019-10-23
听众
13
收听
0
主题
0
蓝光币
167 枚
贡献
0 点
发表于 2019-9-23 10:54:32 | 显示全部楼层
楼主发贴辛苦了,谢谢楼主分享!我觉得中国高清电影网是注册对了!
VIP会员免费任意下载本站所有资源!---点击开通
回复

使用道具 举报

懒得打字嘛,点击右侧快捷回复 【右侧内容,后台自定义】
您需要登录后才可以回帖 登录 | 立即注册

本版积分规则

QQ|Archiver|手机版|小黑屋| 中国高清网 |网站地图

GMT+8, 2019-10-24 06:58 , Processed in 0.257145 second(s), 39 queries .

Powered by HDchina X3.4

Copyright 2017-2019©HDchina.All right reserved

返回顶部 联系我们