查看: 31|回复: 1

[喜剧片] 神气威龙/亚瑟王与棒球少年 A.Kid.In.King.Arthurs.Court.1995.1080p.AMZN.WEBRip.DDP2.0.X264-ABM 8.81GB

[复制链接]

 成长值: 2930

级别:资源管理组

注册时间
2017-10-20
最后登录
2019-10-24
听众
1
收听
0
主题
85436
蓝光币
56836 枚
贡献
9794 点
发表于 2019-9-21 13:33:40 | 显示全部楼层 |阅读模式
神气威龙/亚瑟王与棒球少年 A.Kid.In.King.Arthurs.Court.1995.1080p.AMZN.WEBRip.DDP2.0.X264-ABM 8.81GB-1.png

译  名 神气威龙 / 亚瑟王与棒球少年 / 萨拉公主 / 越空小军人
片  名 A Kid in King Arthur's Court
年  代 1995
产  地 美国 / 匈牙利 / 英国
类  别 笑剧 / 恋爱 / 家庭 / 奇异 / 冒险
语  言 英语
上映日期 1995-08-11
IMDb评分  4.7/10 from 5365 users
IMDb链接  http://www.imdb.com/title/tt0113538
豆瓣评分 7.1/10 from 63 users
豆瓣链接 https://movie.douban.com/subject/1300996/
片  长 89 分钟
导  演 Michael Gottlieb
编  剧 Michael Part / Robert L. Levy
主  演 Thomas Ian Nicholas
       Joss Ackland
       Art Malik
       Paloma Baeza
       Kate Winslet
       Daniel Craig


标  签 奇异 | 穿越 | 美国 | 童年回忆 | 美国电影 | 电影 | KateWinslet | 魔幻

简  介  

  卡尔文是一个聪敏而讨人喜好的孩子。一天,在瑞西德举行的少年棒球赛中,卡尔文从脚下裂开的地缝里穿越时空的地道来到了中世纪的凯摩洛德王朝。本来,凯摩洛德的亚塞国王落空了昔日的神威,作恶多真个贝拉斯克勋爵对王位蓄谋已久,是摩林神灵把卡尔文作为骑士带到这里拯救凯摩洛德的。
  卡尔文的到来被贝拉斯克勋爵视为他夺取王位的障碍,在几次撤除卡尔文没能得逞后,贝拉斯克勋爵派人绑架了对卡尔文逐步发生好感的二公主凯瑟,并以此勒迫亚瑟国王把公主萨拉嫁给他。王宫里的凯恩军人是萨拉公主的意中人,她希望在王宫的大交锋中提拔出能真正继续王位的良人。
  履历这场灾难后,亚瑟王不但看清了贝拉斯克勋爵的丑陋嘴脸,而且还规复了昔日的神威,他赞成了萨拉公主交锋招亲的请求。交锋起头了,凯恩负伤后,卡尔文在代他披挂出征中克服了贝拉斯克勋爵。完成了拯救凯摩洛德的使命后,在摩林神灵的帮助下卡尔文又回到了棒球赛场。
  1. Video
  2. ID                                       : 1
  3. Format                                   : AVC
  4. Format/Info                              : Advanced Video Codec
  5. Format profile                           : High@L4
  6. Format settings                          : CABAC / 4 Ref Frames
  7. Format settings, CABAC                   : Yes
  8. Format settings, Reference frames        : 4 frames
  9. Codec ID                                 : V_MPEG4/ISO/AVC
  10. Duration                                 : 1 h 30 min
  11. Bit rate mode                            : Variable
  12. Bit rate                                 : 13.8 Mb/s
  13. Maximum bit rate                         : 15.0 Mb/s
  14. Width                                    : 1 920 pixels
  15. Height                                   : 1 080 pixels
  16. Display aspect ratio                     : 16:9
  17. Frame rate mode                          : Constant
  18. Frame rate                               : 23.976 (24000/1001) FPS
  19. Color space                              : YUV
  20. Chroma subsampling                       : 4:2:0
  21. Bit depth                                : 8 bits
  22. Scan type                                : Progressive
  23. Bits/(Pixel*Frame)                       : 0.277
  24. Stream size                              : 8.67 GiB (98%)
  25. Writing library                          : x264 core 148 r2623 d5b2374
  26. Encoding settings                        : cabac=1 / ref=4 / deblock=1:-1:-1 / analyse=0x3:0x133 / me=umh / subme=9 / psy=1 / psy_rd=1.00:0.15 / mixed_ref=1 / me_range=24 / chroma_me=1 / trellis=2 / 8x8dct=1 / cqm=0 / deadzone=21,11 / fast_pskip=1 / chroma_qp_offset=-3 / threads=34 / lookahead_threads=5 / sliced_threads=0 / nr=150 / decimate=1 / interlaced=0 / bluray_compat=0 / constrained_intra=0 / bframes=8 / b_pyramid=2 / b_adapt=2 / b_bias=0 / direct=3 / weightb=1 / open_gop=0 / weightp=2 / keyint=120 / keyint_min=61 / scenecut=0 / intra_refresh=0 / rc_lookahead=120 / rc=crf / mbtree=1 / crf=18.0 / qcomp=0.60 / qpmin=0 / qpmax=69 / qpstep=4 / vbv_maxrate=15000 / vbv_bufsize=31250 / crf_max=0.0 / nal_hrd=vbr / filler=0 / ip_ratio=1.40 / aq=3:1.00
  27. Default                                  : Yes
  28. Forced                                   : No
  29. Color range                              : Limited
  30. Color primaries                          : BT.709
  31. Transfer characteristics                 : BT.709
  32. Matrix coefficients                      : BT.709

  33. Audio
  34. ID                                       : 2
  35. Format                                   : E-AC-3
  36. Format/Info                              : Enhanced AC-3
  37. Commercial name                          : Dolby Digital Plus
  38. Codec ID                                 : A_EAC3
  39. Duration                                 : 1 h 30 min
  40. Bit rate mode                            : Constant
  41. Bit rate                                 : 224 kb/s
  42. Channel(s)                               : 2 channels
  43. Channel layout                           : L R
  44. Sampling rate                            : 48.0 kHz
  45. Frame rate                               : 31.250 FPS (1536 SPF)
  46. Compression mode                         : Lossy
  47. Stream size                              : 144 MiB (2%)
  48. Language                                 : English
  49. Service kind                             : Complete Main
  50. Default                                  : Yes
  51. Forced                                   : No

  52. Text #1
  53. ID                                       : 3
  54. Format                                   : UTF-8
  55. Codec ID                                 : S_TEXT/UTF8
  56. Codec ID/Info                            : UTF-8 Plain Text
  57. Duration                                 : 1 h 23 min
  58. Bit rate                                 : 50 b/s
  59. Count of elements                        : 905
  60. Stream size                              : 30.8 KiB (0%)
  61. Language                                 : English
  62. Default                                  : No
  63. Forced                                   : No

  64. Text #2
  65. ID                                       : 4
  66. Format                                   : UTF-8
  67. Codec ID                                 : S_TEXT/UTF8
  68. Codec ID/Info                            : UTF-8 Plain Text
  69. Duration                                 : 1 h 23 min
  70. Bit rate                                 : 54 b/s
  71. Count of elements                        : 967
  72. Stream size                              : 33.5 KiB (0%)
  73. Title                                    : SDH
  74. Language                                 : English
  75. Default                                  : No
  76. Forced                                   : No
复制代码

神气威龙/亚瑟王与棒球少年 A.Kid.In.King.Arthurs.Court.1995.1080p.AMZN.WEBRip.DDP2.0.X264-ABM 8.81GB-2.png 神气威龙/亚瑟王与棒球少年 A.Kid.In.King.Arthurs.Court.1995.1080p.AMZN.WEBRip.DDP2.0.X264-ABM 8.81GB-3.png 神气威龙/亚瑟王与棒球少年 A.Kid.In.King.Arthurs.Court.1995.1080p.AMZN.WEBRip.DDP2.0.X264-ABM 8.81GB-4.png







VIP会员免费任意下载本站所有资源!---点击开通
回复

使用道具 举报

级别:一举成名 Lv.7

注册时间
2019-4-24
最后登录
2019-10-24
听众
13
收听
0
主题
0
蓝光币
171 枚
贡献
0 点
发表于 2019-9-23 11:02:56 | 显示全部楼层
楼主发贴辛苦了,谢谢楼主分享!我觉得中国高清电影网是注册对了!
VIP会员免费任意下载本站所有资源!---点击开通
回复

使用道具 举报

懒得打字嘛,点击右侧快捷回复 【右侧内容,后台自定义】
您需要登录后才可以回帖 登录 | 立即注册

本版积分规则

QQ|Archiver|手机版|小黑屋| 中国高清网 |网站地图

GMT+8, 2019-10-24 08:26 , Processed in 0.290622 second(s), 39 queries .

Powered by HDchina X3.4

Copyright 2017-2019©HDchina.All right reserved

返回顶部 联系我们