查看: 27|回复: 1

[喜剧片] 反智特工/搞笑特务 Company.Man.2000.1080p.AMZN.WEBRip.DDP2.0.x264-monkee 6.90GB

[复制链接]

 成长值: 2930

级别:资源管理组

注册时间
2017-10-20
最后登录
2019-10-24
听众
1
收听
0
主题
85436
蓝光币
56824 枚
贡献
9794 点
发表于 2019-9-21 13:31:22 | 显示全部楼层 |阅读模式
反智奸细/搞笑特务 Company.Man.2000.1080p.AMZN.WEBRip.DDP2.0.x264-monkee 6.90GB-1.png

译  名 反智奸细 / 搞笑特务
片  名 Company Man
年  代 2000
产  地 法国 / 英国 / 美国
类  别 笑剧
语  言 英语
上映日期 2000-05-03
IMDb评分  5.4/10 from 1921 users
IMDb链接  http://www.imdb.com/title/tt0177650
豆瓣评分 0/10 from 0 users
豆瓣链接 https://movie.douban.com/subject/1306668/
片  长 Argentina: 82 分钟
导  演 道格拉斯 麦格拉思 (Douglas McGrath) / 彼得 阿斯金 (Peter Askin)
编  剧 道格拉斯 麦格拉思 (Douglas McGrath) / 彼得 阿斯金 (Peter Askin)
主  演 Paul Guilfoyle ...  Officer Hickle
       Jeffrey Jones ...  Sen. Biggs
       Sigourney Weaver ...  Daisy Quimp
       伍迪·艾伦 Woody Allen


标  签 笑剧 | 美国 | 特务 | 英国 | 典范老片 | WoodyAllen | 西格妮·韦弗 | 法国

简  介  

  60年月的一位高中教师成为国际特务,卷入了颠覆菲德尔·卡斯特罗的诡计。
  1. Video
  2. ID                                       : 1
  3. Format                                   : AVC
  4. Format/Info                              : Advanced Video Codec
  5. Format profile                           : High@L4
  6. Format settings                          : CABAC / 4 Ref Frames
  7. Format settings, CABAC                   : Yes
  8. Format settings, Reference frames        : 4 frames
  9. Codec ID                                 : V_MPEG4/ISO/AVC
  10. Duration                                 : 1 h 21 min
  11. Bit rate mode                            : Variable
  12. Bit rate                                 : 11.9 Mb/s
  13. Maximum bit rate                         : 15.0 Mb/s
  14. Width                                    : 1 920 pixels
  15. Height                                   : 1 080 pixels
  16. Display aspect ratio                     : 16:9
  17. Frame rate mode                          : Constant
  18. Frame rate                               : 23.976 (24000/1001) FPS
  19. Color space                              : YUV
  20. Chroma subsampling                       : 4:2:0
  21. Bit depth                                : 8 bits
  22. Scan type                                : Progressive
  23. Bits/(Pixel*Frame)                       : 0.239
  24. Stream size                              : 6.77 GiB (98%)
  25. Default                                  : Yes
  26. Forced                                   : No
  27. Color range                              : Limited
  28. Color primaries                          : BT.709
  29. Transfer characteristics                 : BT.709
  30. Matrix coefficients                      : BT.709

  31. Audio
  32. ID                                       : 2
  33. Format                                   : E-AC-3
  34. Format/Info                              : Enhanced AC-3
  35. Commercial name                          : Dolby Digital Plus
  36. Codec ID                                 : A_EAC3
  37. Duration                                 : 1 h 21 min
  38. Bit rate mode                            : Constant
  39. Bit rate                                 : 224 kb/s
  40. Channel(s)                               : 2 channels
  41. Channel layout                           : L R
  42. Sampling rate                            : 48.0 kHz
  43. Frame rate                               : 31.250 FPS (1536 SPF)
  44. Compression mode                         : Lossy
  45. Stream size                              : 131 MiB (2%)
  46. Language                                 : English
  47. Service kind                             : Complete Main
  48. Default                                  : Yes
  49. Forced                                   : No

  50. Text
  51. ID                                       : 3
  52. Format                                   : UTF-8
  53. Codec ID                                 : S_TEXT/UTF8
  54. Codec ID/Info                            : UTF-8 Plain Text
  55. Duration                                 : 1 h 21 min
  56. Bit rate                                 : 101 b/s
  57. Count of elements                        : 1452
  58. Stream size                              : 60.4 KiB (0%)
  59. Language                                 : English
  60. Default                                  : No
  61. Forced                                   : No
复制代码

反智奸细/搞笑特务 Company.Man.2000.1080p.AMZN.WEBRip.DDP2.0.x264-monkee 6.90GB-2.png 反智奸细/搞笑特务 Company.Man.2000.1080p.AMZN.WEBRip.DDP2.0.x264-monkee 6.90GB-3.png 反智奸细/搞笑特务 Company.Man.2000.1080p.AMZN.WEBRip.DDP2.0.x264-monkee 6.90GB-4.png







VIP会员免费任意下载本站所有资源!---点击开通
回复

使用道具 举报

级别:一举成名 Lv.7

注册时间
2019-4-24
最后登录
2019-10-23
听众
13
收听
0
主题
0
蓝光币
167 枚
贡献
0 点
发表于 2019-9-23 11:04:11 | 显示全部楼层
楼主发贴辛苦了,谢谢楼主分享!我觉得中国高清电影网是注册对了!
VIP会员免费任意下载本站所有资源!---点击开通
回复

使用道具 举报

懒得打字嘛,点击右侧快捷回复 【右侧内容,后台自定义】
您需要登录后才可以回帖 登录 | 立即注册

本版积分规则

QQ|Archiver|手机版|小黑屋| 中国高清网 |网站地图

GMT+8, 2019-10-24 06:55 , Processed in 0.267008 second(s), 39 queries .

Powered by HDchina X3.4

Copyright 2017-2019©HDchina.All right reserved

返回顶部 联系我们