查看: 19|回复: 1

[喜剧片] 这还用说吗? Craig.Ferguson.Does.This.Need.to.Be.Said.2011.1080p.WEBRip.x264-RARBG 1.24GB

[复制链接]

 成长值: 2930

级别:资源管理组

注册时间
2017-10-20
最后登录
2019-10-24
听众
1
收听
0
主题
85436
蓝光币
56824 枚
贡献
9794 点
发表于 2019-9-21 13:30:32 | 显示全部楼层 |阅读模式
这还用说吗? Craig.Ferguson.Does.This.Need.to.Be.Said.2011.1080p.WEBRip.x264-RARBG 1.24GB-1.png

译  名 这还用说吗?
片  名 Does it need to be said ?
年  代 2011
产  地 美国
类  别 笑剧
IMDb评分  7.6/10 from 629 users
IMDb链接  http://www.imdb.com/title/tt1831617
豆瓣评分 8.2/10 from 82 users
豆瓣链接 https://movie.douban.com/subject/6118625/
导  演 Craig Ferguson
主  演 Craig Ferguson


标  签 Stand-up | CraigFerguson | 美国 | 脱口秀 | stand-up | Comedy | Stand-Up | 2011

简  介  

  The gloriously ribald Scot, Craig Ferguson takes to the stage in this all-new comedy special for a night of jokes and storytelling peppered with the kinds of words he's not allowed to say on network TV. Before a hootin' and hollerin' Nashville audience, Ferguson tackles every topic from celebrity sex scandals to booze to his own hilarious heavy metal past.
  If you only know Craig Ferguson as host of The Late Late Show or as Drew Carey's sitcom boss, you're missing out. The gloriously ribald Scot takes to the stage in this all-new extended and uncensored stand-up special for a night of jokes and storytelling peppered with the kinds of words he's not allowed to say on network TV. Before a rockin' Nashville audience, Ferguson tackles every topic from celebrity sex scandals to booze to his own hilarious heavy metal past-all in an accent that makes him sound downright refined.
  1. Video
  2. ID                                       : 1
  3. Format                                   : AVC
  4. Format/Info                              : Advanced Video Codec
  5. Format profile                           : High@L4
  6. Format settings                          : CABAC / 4 Ref Frames
  7. Format settings, CABAC                   : Yes
  8. Format settings, Reference frames        : 4 frames
  9. Codec ID                                 : avc1
  10. Codec ID/Info                            : Advanced Video Coding
  11. Duration                                 : 1 h 5 min
  12. Bit rate                                 : 2 500 kb/s
  13. Width                                    : 1 920 pixels
  14. Height                                   : 1 080 pixels
  15. Display aspect ratio                     : 16:9
  16. Frame rate mode                          : Constant
  17. Frame rate                               : 29.970 (29970/1000) FPS
  18. Color space                              : YUV
  19. Chroma subsampling                       : 4:2:0
  20. Bit depth                                : 8 bits
  21. Scan type                                : Progressive
  22. Bits/(Pixel*Frame)                       : 0.040
  23. Stream size                              : 1.14 GiB (91%)
  24. Writing library                          : x264 core 152 r2851M ba24899
  25. Encoding settings                        : cabac=1 / ref=4 / deblock=1:-1:-1 / analyse=0x3:0x113 / me=umh / subme=9 / psy=1 / psy_rd=1.00:0.15 / mixed_ref=1 / me_range=24 / chroma_me=1 / trellis=2 / 8x8dct=1 / cqm=0 / deadzone=21,11 / fast_pskip=1 / chroma_qp_offset=-3 / threads=16 / lookahead_threads=4 / sliced_threads=0 / nr=0 / decimate=1 / interlaced=0 / bluray_compat=0 / constrained_intra=0 / bframes=3 / b_pyramid=2 / b_adapt=2 / b_bias=0 / direct=3 / weightb=1 / open_gop=0 / weightp=2 / keyint=250 / keyint_min=25 / scenecut=40 / intra_refresh=0 / rc_lookahead=50 / rc=2pass / mbtree=1 / bitrate=2500 / ratetol=1.0 / qcomp=0.60 / qpmin=0 / qpmax=69 / qpstep=4 / cplxblur=20.0 / qblur=0.5 / vbv_maxrate=31250 / vbv_bufsize=31250 / nal_hrd=none / filler=0 / ip_ratio=1.40 / aq=3:1.00
  26. Encoded date                             : UTC 2019-09-20 22:11:07
  27. Tagged date                              : UTC 2019-09-20 22:11:07
  28. Codec configuration box                  : avcC

  29. Audio
  30. ID                                       : 2
  31. Format                                   : AAC LC
  32. Format/Info                              : Advanced Audio Codec Low Complexity
  33. Codec ID                                 : mp4a-40-2
  34. Duration                                 : 1 h 5 min
  35. Duration_LastFrame                       : -11 ms
  36. Bit rate mode                            : Constant
  37. Bit rate                                 : 224 kb/s
  38. Channel(s)                               : 2 channels
  39. Channel layout                           : L R
  40. Sampling rate                            : 48.0 kHz
  41. Frame rate                               : 46.875 FPS (1024 SPF)
  42. Compression mode                         : Lossy
  43. Stream size                              : 104 MiB (8%)
  44. Language                                 : English
  45. Default                                  : Yes
  46. Alternate group                          : 1
  47. Encoded date                             : UTC 2019-09-20 22:11:07
  48. Tagged date                              : UTC 2019-09-20 22:11:07
复制代码

这还用说吗? Craig.Ferguson.Does.This.Need.to.Be.Said.2011.1080p.WEBRip.x264-RARBG 1.24GB-2.png 这还用说吗? Craig.Ferguson.Does.This.Need.to.Be.Said.2011.1080p.WEBRip.x264-RARBG 1.24GB-3.png 这还用说吗? Craig.Ferguson.Does.This.Need.to.Be.Said.2011.1080p.WEBRip.x264-RARBG 1.24GB-4.png







VIP会员免费任意下载本站所有资源!---点击开通
回复

使用道具 举报

级别:一举成名 Lv.7

注册时间
2019-4-24
最后登录
2019-10-23
听众
13
收听
0
主题
0
蓝光币
167 枚
贡献
0 点
发表于 2019-9-23 11:05:11 | 显示全部楼层
楼主发贴辛苦了,谢谢楼主分享!我觉得中国高清电影网是注册对了!
VIP会员免费任意下载本站所有资源!---点击开通
回复

使用道具 举报

懒得打字嘛,点击右侧快捷回复 【右侧内容,后台自定义】
您需要登录后才可以回帖 登录 | 立即注册

本版积分规则

QQ|Archiver|手机版|小黑屋| 中国高清网 |网站地图

GMT+8, 2019-10-24 07:43 , Processed in 0.362285 second(s), 39 queries .

Powered by HDchina X3.4

Copyright 2017-2019©HDchina.All right reserved

返回顶部 联系我们