查看: 441|回复: 6

[2160p-WEB] 最终行动 Operation.Finale.2018.2160p.AMZN.WEBRip.x264.DTS-HD.MA.5.1-AJP69 25.15GB

[复制链接]

 成长值: 3410

级别:资源管理组

注册时间
2017-10-20
最后登录
2019-12-10
听众
1
收听
0
主题
88361
蓝光币
69810 枚
贡献
12723 点
发表于 2019-9-15 13:47:43 | 显示全部楼层 |阅读模式
终极行动 Operation.Finale.2018.2160p.AMZN.WEBRip.x264.DTS-HD.MA.5.1-AJP69 25.15GB-1.png

译  名 终极行动 / Eichmann / 终极行动 / 终结行动
片  名 Operation Finale
年  代 2018
产  地 美国
类  别 剧情 / 列传 / 历史
语  言 英语 / 法语 / 德语 / 西班牙语
上映日期 2018-08-29(美国)
IMDb评分  6.5/10 from 22783 users
IMDb链接  http://www.imdb.com/title/tt5208252
豆瓣评分 6.3/10 from 1290 users
豆瓣链接 https://movie.douban.com/subject/27008105/
片  长 122分钟
导  演 克里斯·韦兹 Chris Weitz
编  剧 马修·奥尔顿 Matthew Orton
主  演 奥斯卡·伊萨克 Oscar Isaac
       本·金斯利 Ben Kingsley
       梅拉尼·罗兰 Mélanie Laurent
       利奥·拉兹 Lior Raz
       尼克·克罗尔 Nick Kroll
       迈克尔·阿伦诺夫 Michael Aronov
       欧哈德·诺勒 Ohad Knoller
       托本·利布雷希特 Torben Liebrecht
       乔·阿尔文 Joe Alwyn
       格列塔·斯卡奇 Greta Scacchi
       彼得·斯特劳斯 Peter Strauss
       海莉·露·理查森 Haley Lu Richardson
       Pêpê Rapazote
       西蒙·拉塞尔·比尔 Simon Russell Beale
       阿兰·柯德勒 Allan Corduner


标  签 历史 | 实在事务改编 | 二战 | 美国 | 列传 | 剧情 | 2018 | 以色列

简  介  

  改编自著名历史实在事务:以色列摩萨德构造追捕纳粹德国高官、被称为“死刑履行者”的阿道夫·艾希曼的故事。
  金斯利饰演艾希曼;阿尔文饰他最年长的儿子克劳斯,在追捕行动时代为了隐藏父亲的身份而谎称是他叔叔;伊萨克饰摩萨德小队带领Peter Malkin,与罗兰饰演的小队唯一女性、麻醉学者Hanna有豪情戏;理查森饰克劳斯的女友Sylvia Herman,她开初掉臂家人警告和否决疯狂爱上了克劳斯,终极转投摩萨德;阿隆诺夫饰摩萨德奸细Zvi Aharoni,狂妄不羁,经常和Peter Malkin发生争论;拉兹饰摩萨德局长Isser Harel。
  1. Video
  2. ID                                       : 1
  3. Format                                   : AVC
  4. Format/Info                              : Advanced Video Codec
  5. Format profile                           : <a href="/cdn-cgi/l/email-protection" class="__cf_email__" data-cfemail="1159787679515d243f20">[email protected]</a>
  6. Format settings                          : CABAC / 6 Ref Frames
  7. Format settings, CABAC                   : Yes
  8. Format settings, Reference frames        : 6 frames
  9. Codec ID                                 : V_MPEG4/ISO/AVC
  10. Duration                                 : 2 h 2 min
  11. Bit rate                                 : 26.0 Mb/s
  12. Width                                    : 3 840 pixels
  13. Height                                   : 2 080 pixels
  14. Display aspect ratio                     : 1.85:1
  15. Frame rate mode                          : Constant
  16. Frame rate                               : 23.976 (24000/1001) FPS
  17. Color space                              : YUV
  18. Chroma subsampling                       : 4:2:0
  19. Bit depth                                : 8 bits
  20. Scan type                                : Progressive
  21. Bits/(Pixel*Frame)                       : 0.136
  22. Stream size                              : 22.3 GiB (89%)
  23. Writing library                          : x264 core 158 r2984 3759fcb
  24. Encoding settings                        : cabac=1 / ref=6 / deblock=1:-3:-3 / analyse=0x3:0x113 / me=umh / subme=10 / psy=1 / psy_rd=1.00:0.00 / mixed_ref=1 / me_range=48 / chroma_me=1 / trellis=2 / 8x8dct=1 / cqm=0 / deadzone=21,11 / fast_pskip=0 / chroma_qp_offset=-2 / threads=24 / lookahead_threads=4 / sliced_threads=0 / nr=0 / decimate=0 / interlaced=0 / bluray_compat=0 / constrained_intra=0 / bframes=8 / b_pyramid=2 / b_adapt=2 / b_bias=0 / direct=1 / weightb=1 / open_gop=0 / weightp=2 / keyint=250 / keyint_min=23 / scenecut=40 / intra_refresh=0 / rc=crf / mbtree=0 / crf=17.0 / qcomp=0.60 / qpmin=0 / qpmax=69 / qpstep=4 / ip_ratio=1.30 / pb_ratio=1.20 / aq=3:0.80
  25. Default                                  : Yes
  26. Forced                                   : No

  27. Audio
  28. ID                                       : 2
  29. Format                                   : DTS XLL
  30. Format/Info                              : Digital Theater Systems
  31. Commercial name                          : DTS-HD Master Audio
  32. Codec ID                                 : A_DTS
  33. Duration                                 : 2 h 2 min
  34. Bit rate mode                            : Variable
  35. Bit rate                                 : 3 313 kb/s
  36. Channel(s)                               : 6 channels
  37. Channel layout                           : C L R Ls Rs LFE
  38. Sampling rate                            : 48.0 kHz
  39. Frame rate                               : 93.750 FPS (512 SPF)
  40. Bit depth                                : 24 bits
  41. Compression mode                         : Lossless
  42. Delay relative to video                  : 1 s 502 ms
  43. Stream size                              : 2.84 GiB (11%)
  44. Title                                    : DTS-HD Master Audio / 5.1 / 48 kHz / 3313 kbps / 24-bit
  45. Language                                 : English
  46. Default                                  : Yes
  47. Forced                                   : No

  48. Text #1
  49. ID                                       : 3
  50. Format                                   : UTF-8
  51. Codec ID                                 : S_TEXT/UTF8
  52. Codec ID/Info                            : UTF-8 Plain Text
  53. Duration                                 : 1 h 53 min
  54. Bit rate                                 : 49 b/s
  55. Count of elements                        : 1416
  56. Stream size                              : 40.9 KiB (0%)
  57. Language                                 : English
  58. Default                                  : No
  59. Forced                                   : No

  60. Text #2
  61. ID                                       : 4
  62. Format                                   : UTF-8
  63. Codec ID                                 : S_TEXT/UTF8
  64. Codec ID/Info                            : UTF-8 Plain Text
  65. Duration                                 : 1 h 55 min
  66. Bit rate                                 : 53 b/s
  67. Count of elements                        : 1644
  68. Stream size                              : 45.4 KiB (0%)
  69. Title                                    : SDH
  70. Language                                 : English
  71. Default                                  : No
  72. Forced                                   : No

  73. Menu
  74. 00:07:12.558                             : en:Chapter 01
  75. 00:13:23.678                             : en:Chapter 02
  76. 00:17:21.040                             : en:Chapter 03
  77. 00:24:45.651                             : en:Chapter 04
  78. 00:31:34.101                             : en:Chapter 05
  79. 00:35:51.149                             : en:Chapter 06
  80. 00:40:28.301                             : en:Chapter 07
  81. 00:47:13.081                             : en:Chapter 08
  82. 00:54:55.418                             : en:Chapter 09
  83. 01:00:22.202                             : en:Chapter 10
  84. 01:08:57.342                             : en:Chapter 11
  85. 01:14:12.740                             : en:Chapter 12
  86. 01:22:07.298                             : en:Chapter 13
  87. 01:27:15.064                             : en:Chapter 14
  88. 01:34:39.633                             : en:Chapter 15
  89. 01:41:03.767                             : en:Chapter 16
  90. 01:45:14.851                             : en:Chapter 17
  91. 01:51:05.659                             : en:Chapter 18
  92. 01:58:08.123                             : en:Chapter 19
复制代码

终极行动 Operation.Finale.2018.2160p.AMZN.WEBRip.x264.DTS-HD.MA.5.1-AJP69 25.15GB-2.png 终极行动 Operation.Finale.2018.2160p.AMZN.WEBRip.x264.DTS-HD.MA.5.1-AJP69 25.15GB-3.png 终极行动 Operation.Finale.2018.2160p.AMZN.WEBRip.x264.DTS-HD.MA.5.1-AJP69 25.15GB-4.png







本帖隐藏的下载地址需要VIP会员才可阅读,您需要升级才可阅读,点击这里升级VIP

VIP会员免费任意下载本站所有资源!---点击开通
回复

使用道具 举报

级别:荣升主角 Lv.5

注册时间
2018-2-26
最后登录
2019-12-10
听众
16
收听
0
主题
0
蓝光币
266 枚
贡献
0 点
发表于 2019-9-16 09:46:46 | 显示全部楼层

楼主太厉害了!楼主,电影应该很好看我觉得中国高清电影网真是个好地方!
VIP会员免费任意下载本站所有资源!---点击开通
回复

使用道具 举报

级别:初级观众 Lv.1

注册时间
2019-9-16
最后登录
2019-9-16
听众
0
收听
0
主题
0
蓝光币
4 枚
贡献
0 点
发表于 2019-9-16 13:10:34 | 显示全部楼层
thank you very much
VIP会员免费任意下载本站所有资源!---点击开通
回复

使用道具 举报

级别:一线明星 Lv.8

注册时间
2019-4-24
最后登录
2019-12-10
听众
14
收听
0
主题
0
蓝光币
214 枚
贡献
0 点
发表于 2019-9-16 14:27:27 | 显示全部楼层
楼主发贴辛苦了,谢谢楼主分享!我觉得中国高清电影网是注册对了!
VIP会员免费任意下载本站所有资源!---点击开通
回复

使用道具 举报

级别:专业龙套 Lv.4

注册时间
2019-6-4
最后登录
2019-12-9
听众
12
收听
0
主题
0
蓝光币
387 枚
贡献
0 点
发表于 2019-9-17 05:45:07 | 显示全部楼层
楼主发贴辛苦了,谢谢楼主分享!我觉得中国高清电影网是注册对了!
VIP会员免费任意下载本站所有资源!---点击开通
回复

使用道具 举报

级别:专业龙套 Lv.4

注册时间
2019-3-30
最后登录
2019-12-9
听众
15
收听
0
主题
0
蓝光币
409 枚
贡献
0 点
发表于 2019-9-17 20:09:18 | 显示全部楼层
看介绍挺紧张的一部电影
VIP会员免费任意下载本站所有资源!---点击开通
回复

使用道具 举报

级别:初级观众 Lv.1

注册时间
2019-12-2
最后登录
2019-12-9
听众
1
收听
0
主题
0
蓝光币
7 枚
贡献
0 点
发表于 2019-12-2 10:39:06 | 显示全部楼层
谢谢楼主分享这么好的资源
VIP会员免费任意下载本站所有资源!---点击开通
回复

使用道具 举报

懒得打字嘛,点击右侧快捷回复 【右侧内容,后台自定义】
您需要登录后才可以回帖 登录 | 立即注册

本版积分规则

QQ|Archiver|手机版|小黑屋| 中国高清网 |网站地图

GMT+8, 2019-12-10 15:26 , Processed in 0.195770 second(s), 37 queries .

Powered by HDchina X3.4

Copyright 2017-2019©HDchina.All right reserved

返回顶部 联系我们