查看: 18|回复: 0

[剧情片] 寂寞芳心 Alice.Adams.1935.1080p.AMZN.WEBRip.DDP2.0.x264-SbR 10.37GB

[复制链接]

 成长值: 2570

级别:资源管理组

注册时间
2017-10-20
最后登录
2019-9-21
听众
1
收听
0
主题
83009
蓝光币
49641 枚
贡献
7337 点
发表于 7 天前 | 显示全部楼层 |阅读模式
孤单芳心 Alice.Adams.1935.1080p.AMZN.WEBRip.DDP2.0.x264-SbR 10.37GB-1.png

译  名 孤单芳心 / Booth Tarkington's Alice Adams / 爱丽丝·亚当斯
片  名 Alice Adams
年  代 1935
产  地 美国
类  别 剧情 / 笑剧 / 恋爱
语  言 英语
上映日期 1935-08-15
IMDb评分  6.9/10 from 3466 users
IMDb链接  http://www.imdb.com/title/tt0026056
豆瓣评分 7.0/10 from 352 users
豆瓣链接 https://movie.douban.com/subject/1293418/
片  长 99 分钟
导  演 George Stevens
编  剧 Dorothy Yost / Mortimer Offner
主  演 Katharine Hepburn
       Fred MacMurray
       Fred Stone
       Evelyn Venable


标  签 恋爱 | 凯瑟琳·赫本 | 美国 | 1935 | KatharineHepburn | 美国电影 | 黑白 | 典范

简  介  

  爱丽丝(凯瑟琳·赫本 Katharine Hepburn 饰)和哥哥沃尔特(弗兰克·艾伯森 Frank Albertson 饰)一同加入了一场盛大的派对,在那边,孤独的爱丽丝碰见了约请他舞蹈的富有男人阿瑟(弗莱德·麦克莫瑞 Fred MacMurray 饰),看着眼前英俊潇洒文质彬彬的男人,爱丽丝瞬间坠入了爱河。
  一方面,爱丽丝想要接近阿瑟,可与此同时,她又不愿阿瑟目击自己清贫的家境。终究,阿瑟要到爱丽丝家做客了,为了招待这位“高朋”,爱丽丝和母亲没少高低忙活。不幸的是,阿瑟明显没法顺应爱丽丝家粗陋的情况和寡淡的食品,集会不欢而散,爱丽丝也堕入了哀痛当中,她感觉自己和阿瑟之间的间隔恍如越来越远。

获奖情况  

  第8届奥斯卡金像奖(1936)
  最好影片(提名)
  最好女配角(提名) 凯瑟琳·赫本
  1. Video
  2. ID                                       : 1
  3. Format                                   : AVC
  4. Format/Info                              : Advanced Video Codec
  5. Format profile                           : <a href="/cdn-cgi/l/email-protection" class="__cf_email__" data-cfemail="85cdece2edc5c9b1">[email protected]</a>
  6. Format settings                          : CABAC / 4 Ref Frames
  7. Format settings, CABAC                   : Yes
  8. Format settings, Reference frames        : 4 frames
  9. Codec ID                                 : V_MPEG4/ISO/AVC
  10. Duration                                 : 1 h 39 min
  11. Bit rate mode                            : Variable
  12. Bit rate                                 : 14.4 Mb/s
  13. Maximum bit rate                         : 15.0 Mb/s
  14. Width                                    : 1 440 pixels
  15. Height                                   : 1 080 pixels
  16. Display aspect ratio                     : 4:3
  17. Frame rate mode                          : Constant
  18. Frame rate                               : 23.976 (24000/1001) FPS
  19. Color space                              : YUV
  20. Chroma subsampling                       : 4:2:0
  21. Bit depth                                : 8 bits
  22. Scan type                                : Progressive
  23. Bits/(Pixel*Frame)                       : 0.386
  24. Stream size                              : 10.0 GiB (97%)
  25. Writing library                          : x264 core 148 r2623 d5b2374
  26. Encoding settings                        : cabac=1 / ref=4 / deblock=1:-1:-1 / analyse=0x3:0x133 / me=umh / subme=9 / psy=1 / psy_rd=1.00:0.15 / mixed_ref=1 / me_range=24 / chroma_me=1 / trellis=2 / 8x8dct=1 / cqm=0 / deadzone=21,11 / fast_pskip=1 / chroma_qp_offset=-3 / threads=34 / lookahead_threads=5 / sliced_threads=0 / nr=150 / decimate=1 / interlaced=0 / bluray_compat=0 / constrained_intra=0 / bframes=8 / b_pyramid=2 / b_adapt=2 / b_bias=0 / direct=3 / weightb=1 / open_gop=0 / weightp=2 / keyint=120 / keyint_min=61 / scenecut=0 / intra_refresh=0 / rc_lookahead=120 / rc=crf / mbtree=1 / crf=18.0 / qcomp=0.60 / qpmin=0 / qpmax=69 / qpstep=4 / vbv_maxrate=15000 / vbv_bufsize=31250 / crf_max=0.0 / nal_hrd=vbr / filler=0 / ip_ratio=1.40 / aq=3:1.00
  27. Language                                 : English
  28. Default                                  : Yes
  29. Forced                                   : No
  30. Color range                              : Limited
  31. Color primaries                          : BT.709
  32. Transfer characteristics                 : BT.709
  33. Matrix coefficients                      : BT.709

  34. Audio
  35. ID                                       : 2
  36. Format                                   : E-AC-3
  37. Format/Info                              : Enhanced AC-3
  38. Commercial name                          : Dolby Digital Plus
  39. Codec ID                                 : A_EAC3
  40. Duration                                 : 1 h 39 min
  41. Bit rate mode                            : Constant
  42. Bit rate                                 : 224 kb/s
  43. Channel(s)                               : 2 channels
  44. Channel layout                           : L R
  45. Sampling rate                            : 48.0 kHz
  46. Frame rate                               : 31.250 FPS (1536 SPF)
  47. Compression mode                         : Lossy
  48. Stream size                              : 159 MiB (2%)
  49. Language                                 : English
  50. Service kind                             : Complete Main
  51. Default                                  : Yes
  52. Forced                                   : No

  53. Text #1
  54. ID                                       : 3
  55. Format                                   : UTF-8
  56. Codec ID                                 : S_TEXT/UTF8
  57. Codec ID/Info                            : UTF-8 Plain Text
  58. Language                                 : English
  59. Default                                  : No
  60. Forced                                   : No

  61. Text #2
  62. ID                                       : 4
  63. Format                                   : UTF-8
  64. Codec ID                                 : S_TEXT/UTF8
  65. Codec ID/Info                            : UTF-8 Plain Text
  66. Title                                    : SDH
  67. Language                                 : English
  68. Default                                  : No
  69. Forced                                   : No
复制代码

孤单芳心 Alice.Adams.1935.1080p.AMZN.WEBRip.DDP2.0.x264-SbR 10.37GB-2.png 孤单芳心 Alice.Adams.1935.1080p.AMZN.WEBRip.DDP2.0.x264-SbR 10.37GB-3.png 孤单芳心 Alice.Adams.1935.1080p.AMZN.WEBRip.DDP2.0.x264-SbR 10.37GB-4.png 孤单芳心 Alice.Adams.1935.1080p.AMZN.WEBRip.DDP2.0.x264-SbR 10.37GB-5.png 09794390839557030102_medium.png 孤单芳心 Alice.Adams.1935.1080p.AMZN.WEBRip.DDP2.0.x264-SbR 10.37GB-7.png






VIP会员免费任意下载本站所有资源!---点击开通
回复

使用道具 举报

懒得打字嘛,点击右侧快捷回复 【右侧内容,后台自定义】
您需要登录后才可以回帖 登录 | 立即注册

本版积分规则

QQ|Archiver|手机版|小黑屋| 中国高清网 |网站地图

GMT+8, 2019-9-21 15:28 , Processed in 0.471111 second(s), 39 queries .

Powered by HDchina X3.4

Copyright 2017-2019©HDchina.All right reserved

返回顶部 联系我们