查看: 11|回复: 0

[纪录片] 嘿调酒师 Hey.Bartender.2013.1080p.AMZN.WEBRip.DD2.0.x264-monkee 6.42GB

[复制链接]

 成长值: 2570

级别:资源管理组

注册时间
2017-10-20
最后登录
2019-9-21
听众
1
收听
0
主题
83009
蓝光币
49639 枚
贡献
7337 点
发表于 7 天前 | 显示全部楼层 |阅读模式
嘿调酒师 Hey.Bartender.2013.1080p.AMZN.WEBRip.DD2.0.x264-monkee 6.42GB-1.png

译  名 嘿,调酒师
片  名 Hey Bartender
年  代 2013
产  地 美国
类  别 记载片
语  言 英语
上映日期 2013-03-08(美国)
IMDb评分  6.5/10 from 329 users
IMDb链接  http://www.imdb.com/title/tt2678448
豆瓣评分 7.7/10 from 49 users
豆瓣链接 https://movie.douban.com/subject/22040972/
片  长 92分钟
导  演 Douglas Tirola
编  剧 Douglas Tirola
主  演 Tony Abou-Ganim
       Eric Alperin
       Jeff Bell


标  签 调酒师 | 记载片 | 酒 | 美国 | 鸡尾酒 | 电影 | 2013 | wine

简  介  

  The story of the bartender in the era of the craft cocktail.
  1. Video
  2. ID                                       : 1
  3. Format                                   : AVC
  4. Format/Info                              : Advanced Video Codec
  5. Format profile                           : <a href="/cdn-cgi/l/email-protection" class="__cf_email__" data-cfemail="5c14353b341c1068">[email protected]</a>
  6. Format settings                          : CABAC / 4 Ref Frames
  7. Format settings, CABAC                   : Yes
  8. Format settings, Reference frames        : 4 frames
  9. Codec ID                                 : V_MPEG4/ISO/AVC
  10. Duration                                 : 1 h 34 min
  11. Bit rate mode                            : Constant
  12. Bit rate                                 : 10 000 kb/s
  13. Width                                    : 1 920 pixels
  14. Height                                   : 1 080 pixels
  15. Display aspect ratio                     : 16:9
  16. Frame rate mode                          : Constant
  17. Frame rate                               : 23.976 (24000/1001) FPS
  18. Color space                              : YUV
  19. Chroma subsampling                       : 4:2:0
  20. Bit depth                                : 8 bits
  21. Scan type                                : Progressive
  22. Bits/(Pixel*Frame)                       : 0.201
  23. Stream size                              : 6.33 GiB (99%)
  24. Language                                 : English
  25. Default                                  : Yes
  26. Forced                                   : No
  27. Color range                              : Limited
  28. Color primaries                          : BT.709
  29. Transfer characteristics                 : BT.709
  30. Matrix coefficients                      : BT.709

  31. Audio
  32. ID                                       : 2
  33. Format                                   : AAC LC
  34. Format/Info                              : Advanced Audio Codec Low Complexity
  35. Codec ID                                 : A_AAC-2
  36. Duration                                 : 1 h 34 min
  37. Bit rate                                 : 125 kb/s
  38. Channel(s)                               : 2 channels
  39. Channel layout                           : L R
  40. Sampling rate                            : 48.0 kHz
  41. Frame rate                               : 46.875 FPS (1024 SPF)
  42. Compression mode                         : Lossy
  43. Stream size                              : 84.5 MiB (1%)
  44. Language                                 : English
  45. Default                                  : Yes
  46. Forced                                   : No

  47. Text
  48. ID                                       : 3
  49. Format                                   : UTF-8
  50. Codec ID                                 : S_TEXT/UTF8
  51. Codec ID/Info                            : UTF-8 Plain Text
  52. Duration                                 : 1 h 30 min
  53. Bit rate                                 : 102 b/s
  54. Count of elements                        : 1906
  55. Stream size                              : 68.0 KiB (0%)
  56. Language                                 : English
  57. Default                                  : No
  58. Forced                                   : No
复制代码

36405910451615385684_medium.png 嘿调酒师 Hey.Bartender.2013.1080p.AMZN.WEBRip.DD2.0.x264-monkee 6.42GB-3.png 嘿调酒师 Hey.Bartender.2013.1080p.AMZN.WEBRip.DD2.0.x264-monkee 6.42GB-4.png 嘿调酒师 Hey.Bartender.2013.1080p.AMZN.WEBRip.DD2.0.x264-monkee 6.42GB-5.png 嘿调酒师 Hey.Bartender.2013.1080p.AMZN.WEBRip.DD2.0.x264-monkee 6.42GB-6.png 嘿调酒师 Hey.Bartender.2013.1080p.AMZN.WEBRip.DD2.0.x264-monkee 6.42GB-7.png






VIP会员免费任意下载本站所有资源!---点击开通
回复

使用道具 举报

懒得打字嘛,点击右侧快捷回复 【右侧内容,后台自定义】
您需要登录后才可以回帖 登录 | 立即注册

本版积分规则

QQ|Archiver|手机版|小黑屋| 中国高清网 |网站地图

GMT+8, 2019-9-21 15:16 , Processed in 0.389096 second(s), 39 queries .

Powered by HDchina X3.4

Copyright 2017-2019©HDchina.All right reserved

返回顶部 联系我们