查看: 11|回复: 0

[剧情片] 小绅士/小男儿 Little.Men.1998.1080p.AMZN.WEBRip.DDP2.0.x264-SbR 8.45GB

[复制链接]

 成长值: 2570

级别:资源管理组

注册时间
2017-10-20
最后登录
2019-9-21
听众
1
收听
0
主题
83026
蓝光币
49779 枚
贡献
7354 点
发表于 7 天前 | 显示全部楼层 |阅读模式
小名流/小男儿 Little.Men.1998.1080p.AMZN.WEBRip.DDP2.0.x264-SbR 8.45GB-1.png

译  名 小名流 / 小男儿
片  名 Little Men
年  代 1998
产  地 加拿大
类  别 剧情
语  言 英语
上映日期 1998-05-08
IMDb评分  6.2/10 from 431 users
IMDb链接  http://www.imdb.com/title/tt0145048
豆瓣评分 8.1/10 from 346 users
豆瓣链接 https://movie.douban.com/subject/1306698/
片  长 95分钟
导  演 罗德尼·吉本斯 Rodney Gibbons
编  剧 路易莎·梅·奥尔科特 Louisa May Alcott / Mark Evan Schwartz
主  演 玛瑞儿·海明威 Mariel Hemingway
       迈克尔?卡洛兹 Michael Caloz
       Gabrielle Boni


标  签 儿童 | 加拿大 | 长大 | 孩子 | 加拿大电影 | 人性 | 剧情 | 电影

简  介  

  这是发生在十九世纪的故事。流浪孩子奈特(迈克尔?卡洛兹Michael Caloz 饰)万万没有想到,自己会被好心人收养,而且去到正规黉舍接管教育。教员们循循善诱,旁人也对他关切有加,令他渐渐走上了长大的邪道,改掉以往生活的各种成规。
  同是流浪儿童的好友戴恩(本?柯克Ben Cook)前来黉舍找到了奈特,虽然众人都不大赞成将这个难管束的少年收留进黉舍,教员还是让他获得教育机遇。可是教育的情况却没有奈特来得顺遂,戴恩顽皮叛逆的天性,给教员门生都带来了诸多麻烦。成果,戴恩被送出黉舍,重新面临着命运使人梗塞的漩涡,他似乎被天下所抛弃,继续孤独的承受着生活之痛。但是,是未灭的泛爱之光,育人之德,让戴恩的命运又一次有了起色。
  1. Video
  2. ID                                       : 1
  3. Format                                   : AVC
  4. Format/Info                              : Advanced Video Codec
  5. Format profile                           : <a href="/cdn-cgi/l/email-protection" class="__cf_email__" data-cfemail="6028090708202c54">[email protected]</a>
  6. Format settings                          : CABAC / 4 Ref Frames
  7. Format settings, CABAC                   : Yes
  8. Format settings, Reference frames        : 4 frames
  9. Codec ID                                 : V_MPEG4/ISO/AVC
  10. Duration                                 : 1 h 37 min
  11. Bit rate mode                            : Variable
  12. Bit rate                                 : 12.1 Mb/s
  13. Maximum bit rate                         : 15.0 Mb/s
  14. Width                                    : 1 920 pixels
  15. Height                                   : 1 040 pixels
  16. Display aspect ratio                     : 1.85:1
  17. Frame rate mode                          : Constant
  18. Frame rate                               : 23.976 (24000/1001) FPS
  19. Color space                              : YUV
  20. Chroma subsampling                       : 4:2:0
  21. Bit depth                                : 8 bits
  22. Scan type                                : Progressive
  23. Bits/(Pixel*Frame)                       : 0.253
  24. Stream size                              : 8.29 GiB (98%)
  25. Language                                 : English
  26. Default                                  : Yes
  27. Forced                                   : No
  28. Color range                              : Limited
  29. Color primaries                          : BT.709
  30. Transfer characteristics                 : BT.709
  31. Matrix coefficients                      : BT.709

  32. Audio
  33. ID                                       : 2
  34. Format                                   : E-AC-3
  35. Format/Info                              : Enhanced AC-3
  36. Commercial name                          : Dolby Digital Plus
  37. Codec ID                                 : A_EAC3
  38. Duration                                 : 1 h 37 min
  39. Bit rate mode                            : Constant
  40. Bit rate                                 : 224 kb/s
  41. Channel(s)                               : 2 channels
  42. Channel layout                           : L R
  43. Sampling rate                            : 48.0 kHz
  44. Frame rate                               : 31.250 FPS (1536 SPF)
  45. Compression mode                         : Lossy
  46. Stream size                              : 157 MiB (2%)
  47. Language                                 : English
  48. Service kind                             : Complete Main
  49. Default                                  : Yes
  50. Forced                                   : No

  51. Text #1
  52. ID                                       : 3
  53. Format                                   : UTF-8
  54. Codec ID                                 : S_TEXT/UTF8
  55. Codec ID/Info                            : UTF-8 Plain Text
  56. Duration                                 : 1 h 34 min
  57. Bit rate                                 : 47 b/s
  58. Count of elements                        : 1282
  59. Stream size                              : 33.3 KiB (0%)
  60. Language                                 : English
  61. Default                                  : No
  62. Forced                                   : No

  63. Text #2
  64. ID                                       : 4
  65. Format                                   : UTF-8
  66. Codec ID                                 : S_TEXT/UTF8
  67. Codec ID/Info                            : UTF-8 Plain Text
  68. Duration                                 : 1 h 35 min
  69. Bit rate                                 : 50 b/s
  70. Count of elements                        : 1396
  71. Stream size                              : 35.3 KiB (0%)
  72. Title                                    : SDH
  73. Language                                 : English
  74. Default                                  : No
  75. Forced                                   : No

  76. Menu
  77. 00:00:00.000                             : en:Chapter 1
  78. 00:09:06.296                             : en:Chapter 2
  79. 00:21:41.800                             : en:Chapter 3
  80. 00:34:21.184                             : en:Chapter 4
  81. 00:46:46.595                             : en:Chapter 5
  82. 00:59:40.911                             : en:Chapter 6
  83. 01:14:43.020                             : en:Chapter 7
  84. 01:26:51.915                             : en:Chapter 8
  85. 01:35:10.747                             : en:Chapter 9
复制代码

小名流/小男儿 Little.Men.1998.1080p.AMZN.WEBRip.DDP2.0.x264-SbR 8.45GB-2.png 小名流/小男儿 Little.Men.1998.1080p.AMZN.WEBRip.DDP2.0.x264-SbR 8.45GB-3.png 小名流/小男儿 Little.Men.1998.1080p.AMZN.WEBRip.DDP2.0.x264-SbR 8.45GB-4.png 01224316017891470324_medium.png 小名流/小男儿 Little.Men.1998.1080p.AMZN.WEBRip.DDP2.0.x264-SbR 8.45GB-6.png 小名流/小男儿 Little.Men.1998.1080p.AMZN.WEBRip.DDP2.0.x264-SbR 8.45GB-7.png






VIP会员免费任意下载本站所有资源!---点击开通
回复

使用道具 举报

懒得打字嘛,点击右侧快捷回复 【右侧内容,后台自定义】
您需要登录后才可以回帖 登录 | 立即注册

本版积分规则

QQ|Archiver|手机版|小黑屋| 中国高清网 |网站地图

GMT+8, 2019-9-21 21:39 , Processed in 0.421532 second(s), 39 queries .

Powered by HDchina X3.4

Copyright 2017-2019©HDchina.All right reserved

返回顶部 联系我们