查看: 9|回复: 0

[剧情片] 小迷糊的情泪 Swing.Shift.1984.1080p.AMZN.WEBRip.DDP2.0.x264-monkee 9.92GB

[复制链接]

 成长值: 2570

级别:资源管理组

注册时间
2017-10-20
最后登录
2019-9-21
听众
1
收听
0
主题
83009
蓝光币
49621 枚
贡献
7337 点
发表于 7 天前 | 显示全部楼层 |阅读模式
小含混的情泪 Swing.Shift.1984.1080p.AMZN.WEBRip.DDP2.0.x264-monkee 9.92GB-1.png

译  名 小含混的情泪
片  名 Swing Shift
年  代 1984
产  地 美国
类  别 剧情 / 笑剧
语  言 英语
上映日期 1984-04-13
IMDb评分  5.9/10 from 3907 users
IMDb链接  http://www.imdb.com/title/tt0088213
豆瓣评分 0/10 from 0 users
豆瓣链接 https://movie.douban.com/subject/1301637/
片  长 100 分钟
导  演 乔纳森·戴米 Jonathan Demme
编  剧 南希·多德 Nancy Dowd
主  演 戈尔迪·霍恩 Goldie Hawn
       库特·拉塞尔 Kurt Russell
       福瑞德·沃德 Fred Ward


标  签 美国 | 笑剧 | 1984 | 歌蒂韩 | GoldieHawn | 美国电影 | 奥斯卡最好女配角 | 戈尔迪

简  介  

  二次大战时代,两位丈夫一样被徵召上疆场而投身工场的女人成了好友:凯(歌蒂韩)是个完善的家庭妇女,她的隔邻邻人海柔(克莉丝汀拉蒂)则穿着入时的美丽妇人。 这两个女人同时在一家制造飞机零件的工场高低午3点到早晨11点的小夜班。在同工场上班的同事洛奇(寇特罗素)对凯一见锺情,并立即对她展开追求;由于深闺难耐,凯终究赞成让洛奇进入她的家门--以及她的床。 不意,就在凯、洛奇及海柔三报酬庆贺洛奇生日而举行的派对上,凯的老公杰克竟意外地返回家门!面临情人和久此外丈夫,凯会决议拯救她的婚姻?还是和洛奇之间的情份?

获奖情况  

  第57届奥斯卡金像奖(1985)
  最好女配角(提名) 克里斯汀·拉蒂
  1. Video
  2. ID                                       : 1
  3. Format                                   : AVC
  4. Format/Info                              : Advanced Video Codec
  5. Format profile                           : <a href="/cdn-cgi/l/email-protection" class="__cf_email__" data-cfemail="c58daca2ad8589f1">[email protected]</a>
  6. Format settings                          : CABAC / 4 Ref Frames
  7. Format settings, CABAC                   : Yes
  8. Format settings, Reference frames        : 4 frames
  9. Codec ID                                 : V_MPEG4/ISO/AVC
  10. Duration                                 : 1 h 40 min
  11. Bit rate mode                            : Variable
  12. Bit rate                                 : 13.7 Mb/s
  13. Maximum bit rate                         : 15.0 Mb/s
  14. Width                                    : 1 920 pixels
  15. Height                                   : 1 080 pixels
  16. Display aspect ratio                     : 16:9
  17. Frame rate mode                          : Constant
  18. Frame rate                               : 23.976 (24000/1001) FPS
  19. Color space                              : YUV
  20. Chroma subsampling                       : 4:2:0
  21. Bit depth                                : 8 bits
  22. Scan type                                : Progressive
  23. Bits/(Pixel*Frame)                       : 0.275
  24. Stream size                              : 9.57 GiB (96%)
  25. Writing library                          : x264 core 148 r2623 d5b2374
  26. Encoding settings                        : cabac=1 / ref=4 / deblock=1:-1:-1 / analyse=0x3:0x133 / me=umh / subme=9 / psy=1 / psy_rd=1.00:0.15 / mixed_ref=1 / me_range=24 / chroma_me=1 / trellis=2 / 8x8dct=1 / cqm=0 / deadzone=21,11 / fast_pskip=1 / chroma_qp_offset=-3 / threads=34 / lookahead_threads=5 / sliced_threads=0 / nr=150 / decimate=1 / interlaced=0 / bluray_compat=0 / constrained_intra=0 / bframes=8 / b_pyramid=2 / b_adapt=2 / b_bias=0 / direct=3 / weightb=1 / open_gop=0 / weightp=2 / keyint=120 / keyint_min=61 / scenecut=0 / intra_refresh=0 / rc_lookahead=120 / rc=crf / mbtree=1 / crf=18.0 / qcomp=0.60 / qpmin=0 / qpmax=69 / qpstep=4 / vbv_maxrate=15000 / vbv_bufsize=31250 / crf_max=0.0 / nal_hrd=vbr / filler=0 / ip_ratio=1.40 / aq=3:1.00
  27. Default                                  : Yes
  28. Forced                                   : No
  29. Color range                              : Limited
  30. Color primaries                          : BT.709
  31. Transfer characteristics                 : BT.709
  32. Matrix coefficients                      : BT.709

  33. Audio
  34. ID                                       : 2
  35. Format                                   : E-AC-3
  36. Format/Info                              : Enhanced AC-3
  37. Commercial name                          : Dolby Digital Plus
  38. Codec ID                                 : A_EAC3
  39. Duration                                 : 1 h 40 min
  40. Bit rate mode                            : Constant
  41. Bit rate                                 : 224 kb/s
  42. Channel(s)                               : 2 channels
  43. Channel layout                           : L R
  44. Sampling rate                            : 48.0 kHz
  45. Frame rate                               : 31.250 FPS (1536 SPF)
  46. Compression mode                         : Lossy
  47. Stream size                              : 161 MiB (2%)
  48. Language                                 : English
  49. Service kind                             : Complete Main
  50. Default                                  : Yes
  51. Forced                                   : No

  52. Text
  53. ID                                       : 3
  54. Format                                   : UTF-8
  55. Codec ID                                 : S_TEXT/UTF8
  56. Codec ID/Info                            : UTF-8 Plain Text
  57. Language                                 : English
  58. Default                                  : No
  59. Forced                                   : No
复制代码

小含混的情泪 Swing.Shift.1984.1080p.AMZN.WEBRip.DDP2.0.x264-monkee 9.92GB-2.png 小含混的情泪 Swing.Shift.1984.1080p.AMZN.WEBRip.DDP2.0.x264-monkee 9.92GB-3.png 小含混的情泪 Swing.Shift.1984.1080p.AMZN.WEBRip.DDP2.0.x264-monkee 9.92GB-4.png 小含混的情泪 Swing.Shift.1984.1080p.AMZN.WEBRip.DDP2.0.x264-monkee 9.92GB-5.png 小含混的情泪 Swing.Shift.1984.1080p.AMZN.WEBRip.DDP2.0.x264-monkee 9.92GB-6.png 小含混的情泪 Swing.Shift.1984.1080p.AMZN.WEBRip.DDP2.0.x264-monkee 9.92GB-7.png






VIP会员免费任意下载本站所有资源!---点击开通
回复

使用道具 举报

懒得打字嘛,点击右侧快捷回复 【右侧内容,后台自定义】
您需要登录后才可以回帖 登录 | 立即注册

本版积分规则

QQ|Archiver|手机版|小黑屋| 中国高清网 |网站地图

GMT+8, 2019-9-21 14:41 , Processed in 0.566318 second(s), 39 queries .

Powered by HDchina X3.4

Copyright 2017-2019©HDchina.All right reserved

返回顶部 联系我们