查看: 10|回复: 0

[喜剧片] 灵犬宾果/宾果历险记 Bingo.1991.1080p.AMZN.WEBRip.DDP2.0.x264-AJP69 8.87GB

[复制链接]

 成长值: 2570

级别:资源管理组

注册时间
2017-10-20
最后登录
2019-9-21
听众
1
收听
0
主题
83009
蓝光币
49639 枚
贡献
7337 点
发表于 7 天前 | 显示全部楼层 |阅读模式
灵犬宾果/宾果历险记 Bingo.1991.1080p.AMZN.WEBRip.DDP2.0.x264-AJP69 8.87GB-1.png

译  名 灵犬宾果 / 宾果历险记 / 小犬当家 / 神犬走天涯
片  名 Bingo
年  代 1991
产  地 美国
类  别 笑剧 / 家庭 / 冒险
语  言 英语
上映日期 1991-08-09
IMDb评分  4.9/10 from 2552 users
IMDb链接  http://www.imdb.com/title/tt0101455
豆瓣评分 7.9/10 from 511 users
豆瓣链接 https://movie.douban.com/subject/1299656/
片  长 Germany: 90 分钟
导  演 马修 罗宾斯 (Matthew Robbins (I))
编  剧 吉姆 斯特兰 (Jim Strain)
主  演 Robert J. Steinmiller Jr.
       大卫·拉斯彻 David Rasche
       辛迪·威廉姆斯 Cindy Williams


标  签 狗狗 | 美国 | 狗 | 笑剧 | 动物 | 人与动物 | 美国电影 | 童年回忆

简  介  

  宾果(Bingo)是一条其貌不扬的狗,自从它勇救落水男孩查克(Robert J. Steinmiller Jr.饰),就和辛迪成为了要好的朋友。可是,辛迪的家人并不能包容它,在举家搬家时把它留在了旧屋。宾果一心要找回它虔诚保护的小仆人,因而上演了一个千里寻人的故事。
  宾果的路上布满了坎坷的困难,同时布满了新颖的应战。它救出被抢劫的一家,被误投进牢狱,尔后起头了宾果版的“逃狱”大戏,终究回到查克身旁,却发现查克似乎已经把它忘记。宾果和仆人的豪情,看来还要承受一次灾难的洗礼才能获得明证。
  1. Video
  2. ID                                       : 1
  3. Format                                   : AVC
  4. Format/Info                              : Advanced Video Codec
  5. Format profile                           : <a href="/cdn-cgi/l/email-protection" class="__cf_email__" data-cfemail="054d6c626d454931">[email protected]</a>
  6. Format settings                          : CABAC / 4 Ref Frames
  7. Format settings, CABAC                   : Yes
  8. Format settings, Reference frames        : 4 frames
  9. Codec ID                                 : V_MPEG4/ISO/AVC
  10. Duration                                 : 1 h 29 min
  11. Bit rate                                 : 13.9 Mb/s
  12. Width                                    : 1 920 pixels
  13. Height                                   : 1 080 pixels
  14. Display aspect ratio                     : 16:9
  15. Frame rate mode                          : Constant
  16. Frame rate                               : 23.976 (24000/1001) FPS
  17. Color space                              : YUV
  18. Chroma subsampling                       : 4:2:0
  19. Bit depth                                : 8 bits
  20. Scan type                                : Progressive
  21. Bits/(Pixel*Frame)                       : 0.280
  22. Stream size                              : 8.73 GiB (98%)
  23. Default                                  : Yes
  24. Forced                                   : No
  25. Color range                              : Limited
  26. Color primaries                          : BT.709
  27. Transfer characteristics                 : BT.709
  28. Matrix coefficients                      : BT.709

  29. Audio
  30. ID                                       : 2
  31. Format                                   : E-AC-3
  32. Format/Info                              : Enhanced AC-3
  33. Commercial name                          : Dolby Digital Plus
  34. Codec ID                                 : A_EAC3
  35. Duration                                 : 1 h 29 min
  36. Bit rate mode                            : Constant
  37. Bit rate                                 : 224 kb/s
  38. Channel(s)                               : 2 channels
  39. Channel layout                           : L R
  40. Sampling rate                            : 48.0 kHz
  41. Frame rate                               : 31.250 FPS (1536 SPF)
  42. Compression mode                         : Lossy
  43. Stream size                              : 144 MiB (2%)
  44. Language                                 : English
  45. Service kind                             : Complete Main
  46. Default                                  : Yes
  47. Forced                                   : No

  48. Text
  49. ID                                       : 3
  50. Format                                   : UTF-8
  51. Codec ID                                 : S_TEXT/UTF8
  52. Codec ID/Info                            : UTF-8 Plain Text
  53. Duration                                 : 1 h 28 min
  54. Bit rate                                 : 54 b/s
  55. Count of elements                        : 1395
  56. Stream size                              : 35.5 KiB (0%)
  57. Title                                    : SDH
  58. Language                                 : English
  59. Default                                  : No
  60. Forced                                   : No
复制代码

灵犬宾果/宾果历险记 Bingo.1991.1080p.AMZN.WEBRip.DDP2.0.x264-AJP69 8.87GB-2.png 灵犬宾果/宾果历险记 Bingo.1991.1080p.AMZN.WEBRip.DDP2.0.x264-AJP69 8.87GB-3.png 灵犬宾果/宾果历险记 Bingo.1991.1080p.AMZN.WEBRip.DDP2.0.x264-AJP69 8.87GB-4.png






VIP会员免费任意下载本站所有资源!---点击开通
回复

使用道具 举报

懒得打字嘛,点击右侧快捷回复 【右侧内容,后台自定义】
您需要登录后才可以回帖 登录 | 立即注册

本版积分规则

QQ|Archiver|手机版|小黑屋| 中国高清网 |网站地图

GMT+8, 2019-9-21 15:21 , Processed in 0.396954 second(s), 39 queries .

Powered by HDchina X3.4

Copyright 2017-2019©HDchina.All right reserved

返回顶部 联系我们