查看: 9|回复: 0

[喜剧片] 特罗马之战 Tromas.War.1988.1080p.AMZN.WEBRip.DDP2.0.x264-NTb 10.60GB

[复制链接]

 成长值: 2570

级别:资源管理组

注册时间
2017-10-20
最后登录
2019-9-21
听众
1
收听
0
主题
83026
蓝光币
49759 枚
贡献
7354 点
发表于 7 天前 | 显示全部楼层 |阅读模式
特罗马之战 Tromas.War.1988.1080p.AMZN.WEBRip.DDP2.0.x264-NTb 10.60GB-1.png

译  名 特罗马之战
片  名 Troma's War
年  代 1988
产  地 美国
类  别 笑剧 / 行动 / 惊悚 / 可骇 / 冒险
语  言 英语 / 德语 / 西班牙语
上映日期 1988-12-09
IMDb评分  5.7/10 from 1559 users
IMDb链接  http://www.imdb.com/title/tt0096310
豆瓣评分 5.5/10 from 107 users
豆瓣链接 https://movie.douban.com/subject/1754636/
片  长 Germany: 91 分钟
导  演 Lloyd Kaufman
主  演 Mitchell Dana
       Eric Hattler


标  签 美国 | TROMA | 可骇 | 美国电影 | 荒诞 | 我看过的可骇电影 | 疯狂 | 我看过的英语电影

简  介  

  一架客机不幸坠毁于某知名小岛,幸存乘客突遇某企图攻击美国的武装构造,一场血战,一触即发,Troma公司最有野心的一部电影,片中死伤人数跨越1000。。。。。
  1. Video
  2. ID                                       : 1
  3. Format                                   : AVC
  4. Format/Info                              : Advanced Video Codec
  5. Format profile                           : <a href="/cdn-cgi/l/email-protection" class="__cf_email__" data-cfemail="1d55747a755d5129">[email protected]</a>
  6. Format settings                          : CABAC / 4 Ref Frames
  7. Format settings, CABAC                   : Yes
  8. Format settings, Reference frames        : 4 frames
  9. Codec ID                                 : V_MPEG4/ISO/AVC
  10. Duration                                 : 1 h 44 min
  11. Bit rate mode                            : Variable
  12. Bit rate                                 : 14.0 Mb/s
  13. Maximum bit rate                         : 15.0 Mb/s
  14. Width                                    : 1 920 pixels
  15. Height                                   : 1 080 pixels
  16. Display aspect ratio                     : 16:9
  17. Frame rate mode                          : Constant
  18. Frame rate                               : 23.976 (24000/1001) FPS
  19. Color space                              : YUV
  20. Chroma subsampling                       : 4:2:0
  21. Bit depth                                : 8 bits
  22. Scan type                                : Progressive
  23. Bits/(Pixel*Frame)                       : 0.282
  24. Stream size                              : 10.2 GiB (96%)
  25. Writing library                          : x264 core 148 r2623 d5b2374
  26. Encoding settings                        : cabac=1 / ref=4 / deblock=1:-1:-1 / analyse=0x3:0x133 / me=umh / subme=9 / psy=1 / psy_rd=1.00:0.15 / mixed_ref=1 / me_range=24 / chroma_me=1 / trellis=2 / 8x8dct=1 / cqm=0 / deadzone=21,11 / fast_pskip=1 / chroma_qp_offset=-3 / threads=34 / lookahead_threads=5 / sliced_threads=0 / nr=150 / decimate=1 / interlaced=0 / bluray_compat=0 / constrained_intra=0 / bframes=8 / b_pyramid=2 / b_adapt=2 / b_bias=0 / direct=3 / weightb=1 / open_gop=0 / weightp=2 / keyint=120 / keyint_min=61 / scenecut=0 / intra_refresh=0 / rc_lookahead=120 / rc=crf / mbtree=1 / crf=18.0 / qcomp=0.60 / qpmin=0 / qpmax=69 / qpstep=4 / vbv_maxrate=15000 / vbv_bufsize=31250 / crf_max=0.0 / nal_hrd=vbr / filler=0 / ip_ratio=1.40 / aq=3:1.00
  27. Default                                  : Yes
  28. Forced                                   : No
  29. Color range                              : Limited
  30. Color primaries                          : BT.709
  31. Transfer characteristics                 : BT.709
  32. Matrix coefficients                      : BT.709

  33. Audio
  34. ID                                       : 2
  35. Format                                   : E-AC-3
  36. Format/Info                              : Enhanced AC-3
  37. Commercial name                          : Dolby Digital Plus
  38. Codec ID                                 : A_EAC3
  39. Duration                                 : 1 h 44 min
  40. Bit rate mode                            : Constant
  41. Bit rate                                 : 224 kb/s
  42. Channel(s)                               : 2 channels
  43. Channel layout                           : L R
  44. Sampling rate                            : 48.0 kHz
  45. Frame rate                               : 31.250 FPS (1536 SPF)
  46. Compression mode                         : Lossy
  47. Stream size                              : 167 MiB (2%)
  48. Language                                 : English
  49. Service kind                             : Complete Main
  50. Default                                  : Yes
  51. Forced                                   : No

  52. Text
  53. ID                                       : 3
  54. Format                                   : UTF-8
  55. Codec ID                                 : S_TEXT/UTF8
  56. Codec ID/Info                            : UTF-8 Plain Text
  57. Language                                 : English
  58. Default                                  : No
  59. Forced                                   : No
复制代码

特罗马之战 Tromas.War.1988.1080p.AMZN.WEBRip.DDP2.0.x264-NTb 10.60GB-2.png 特罗马之战 Tromas.War.1988.1080p.AMZN.WEBRip.DDP2.0.x264-NTb 10.60GB-3.png 特罗马之战 Tromas.War.1988.1080p.AMZN.WEBRip.DDP2.0.x264-NTb 10.60GB-4.png 特罗马之战 Tromas.War.1988.1080p.AMZN.WEBRip.DDP2.0.x264-NTb 10.60GB-5.png 特罗马之战 Tromas.War.1988.1080p.AMZN.WEBRip.DDP2.0.x264-NTb 10.60GB-6.png 特罗马之战 Tromas.War.1988.1080p.AMZN.WEBRip.DDP2.0.x264-NTb 10.60GB-7.png






VIP会员免费任意下载本站所有资源!---点击开通
回复

使用道具 举报

懒得打字嘛,点击右侧快捷回复 【右侧内容,后台自定义】
您需要登录后才可以回帖 登录 | 立即注册

本版积分规则

QQ|Archiver|手机版|小黑屋| 中国高清网 |网站地图

GMT+8, 2019-9-21 20:59 , Processed in 0.387218 second(s), 39 queries .

Powered by HDchina X3.4

Copyright 2017-2019©HDchina.All right reserved

返回顶部 联系我们