查看: 72|回复: 0

[恐怖片] 妖怪大战争 The.Great.Yokai.War.2005.JAPANESE.1080p.BluRay.x264-HANDJOB 9.10GB

[复制链接]

 成长值: 2560

级别:资源管理组

注册时间
2017-10-20
最后登录
2019-9-19
听众
1
收听
0
主题
82921
蓝光币
49296 枚
贡献
7249 点
发表于 7 天前 | 显示全部楼层 |阅读模式
魔鬼大战争 The.Great.Yokai.War.2005.JAPANESE.1080p.BluRay.x264-HANDJOB 9.10GB-1.png

译  名 魔鬼大战争 / A Grande Guerra Yokai
片  名 魔鬼大戦争
年  代 2005
产  地 日本
类  别 笑剧 / 可骇 / 家庭 / 奇异 / 冒险
语  言 日语
上映日期 2005-08-06
IMDb评分  6.4/10 from 2178 users
IMDb链接  http://www.imdb.com/title/tt0425661
豆瓣评分 6.5/10 from 1139 users
豆瓣链接 https://movie.douban.com/subject/1421885/
片  长 USA: 124 分钟
导  演 三池崇史 Takashi Miike
编  剧 三池崇史 Takashi Miike
主  演 神木隆之介 Ry?nosuke Kamiki
       宫迫博之 Hiroyuki Miyasako
       栗山千明 Chiaki Kuriyama
       丰川悦司 Etsushi Toyokawa


标  签 三池崇史 | 日本 | 日本电影 | 神木隆之介 | 奇异 | 栗山千明 | 魔幻 | 2005

简  介  

  由于怙恃仳离,刚满10岁的忠志(神木隆之介饰)只好跟母亲来到乡下跟外公一路生活。一次偶然,忠志参拜神社时被选为“麒麟送子”。当地有个传闻,被选为麒麟送子的孩子可在大天狗山顶,拿到传闻中大天狗保护的飞剑。传闻那飞剑是用来保护战争的,伙伴们嘲弄他不敢上大天狗山取麒麟送子的宝剑。他在尝试一半后,被吓返来。
  另一方面,千年魔人加藤保宪(丰川悦司饰)新生,他操纵废旧物品的怨气,将其与抓来的魔鬼们扔到大怨灵炼火中融合构成邪恶的怪物军团,并率领它们诡计扑灭人类。在山神、河童和川姬等魔鬼的尽力下,忠志经过了考验。为了保卫天下,忠志决议和魔鬼们齐心协力,和大恶人决一死战,魔鬼大战争正式展开!

获奖情况  

  第29届日本电影学院奖(2006)
  最好新人 神木隆之介
  1. Video
  2. ID                                       : 1
  3. Format                                   : AVC
  4. Format/Info                              : Advanced Video Codec
  5. Format profile                           : <a href="/cdn-cgi/l/email-protection" class="__cf_email__" data-cfemail="fcb4959b94bcb0c8d2cd">[email protected]</a>
  6. Format settings                          : CABAC / 4 Ref Frames
  7. Format settings, CABAC                   : Yes
  8. Format settings, Reference frames        : 4 frames
  9. Codec ID                                 : V_MPEG4/ISO/AVC
  10. Duration                                 : 2 h 4 min
  11. Bit rate                                 : 9 620 kb/s
  12. Width                                    : 1 920 pixels
  13. Height                                   : 1 038 pixels
  14. Display aspect ratio                     : 1.85:1
  15. Frame rate mode                          : Constant
  16. Frame rate                               : 23.976 (24000/1001) FPS
  17. Color space                              : YUV
  18. Chroma subsampling                       : 4:2:0
  19. Bit depth                                : 8 bits
  20. Scan type                                : Progressive
  21. Bits/(Pixel*Frame)                       : 0.201
  22. Stream size                              : 8.36 GiB (92%)
  23. Writing library                          : x264 core 157 r2935 545de2f
  24. Encoding settings                        : cabac=1 / ref=4 / deblock=1:-3:-3 / analyse=0x3:0x133 / me=umh / subme=10 / psy=1 / psy_rd=1.00:0.00 / mixed_ref=1 / me_range=32 / chroma_me=1 / trellis=2 / 8x8dct=1 / cqm=0 / deadzone=21,11 / fast_pskip=0 / chroma_qp_offset=-2 / threads=12 / lookahead_threads=3 / sliced_threads=0 / nr=0 / decimate=0 / interlaced=0 / bluray_compat=0 / constrained_intra=0 / bframes=16 / b_pyramid=2 / b_adapt=2 / b_bias=0 / direct=3 / weightb=1 / open_gop=0 / weightp=2 / keyint=240 / keyint_min=24 / scenecut=40 / intra_refresh=0 / rc_lookahead=60 / rc=crf / mbtree=0 / crf=18.2 / qcomp=0.60 / qpmin=0 / qpmax=69 / qpstep=4 / vbv_maxrate=62500 / vbv_bufsize=78125 / crf_max=0.0 / nal_hrd=none / filler=0 / ip_ratio=1.40 / pb_ratio=1.30 / aq=2:1.00
  25. Default                                  : Yes
  26. Forced                                   : No
  27. Color range                              : Limited
  28. Color primaries                          : BT.709
  29. Transfer characteristics                 : BT.709
  30. Matrix coefficients                      : BT.709

  31. Audio
  32. ID                                       : 2
  33. Format                                   : AC-3
  34. Format/Info                              : Audio Coding 3
  35. Commercial name                          : Dolby Digital
  36. Codec ID                                 : A_AC3
  37. Duration                                 : 2 h 4 min
  38. Bit rate mode                            : Constant
  39. Bit rate                                 : 640 kb/s
  40. Channel(s)                               : 6 channels
  41. Channel layout                           : L R C LFE Ls Rs
  42. Sampling rate                            : 48.0 kHz
  43. Frame rate                               : 31.250 FPS (1536 SPF)
  44. Bit depth                                : 16 bits
  45. Compression mode                         : Lossy
  46. Stream size                              : 570 MiB (6%)
  47. Language                                 : Japanese
  48. Service kind                             : Complete Main
  49. Default                                  : Yes
  50. Forced                                   : No

  51. Text
  52. ID                                       : 3
  53. Format                                   : UTF-8
  54. Codec ID                                 : S_TEXT/UTF8
  55. Codec ID/Info                            : UTF-8 Plain Text
  56. Language                                 : English
  57. Default                                  : Yes
  58. Forced                                   : No

  59. Menu
  60. 00:00:00.000                             : en:Chapter 01
  61. 00:05:45.745                             : en:Chapter 02
  62. 00:12:39.759                             : en:Chapter 03
  63. 00:22:28.847                             : en:Chapter 04
  64. 00:31:55.914                             : en:Chapter 05
  65. 00:41:05.362                             : en:Chapter 06
  66. 00:47:26.343                             : en:Chapter 07
  67. 01:02:07.223                             : en:Chapter 08
  68. 01:13:43.118                             : en:Chapter 09
  69. 01:23:34.409                             : en:Chapter 10
  70. 01:30:36.130                             : en:Chapter 11
  71. 01:38:36.210                             : en:Chapter 12
  72. 01:48:30.804                             : en:Chapter 13
复制代码

魔鬼大战争 The.Great.Yokai.War.2005.JAPANESE.1080p.BluRay.x264-HANDJOB 9.10GB-2.png 魔鬼大战争 The.Great.Yokai.War.2005.JAPANESE.1080p.BluRay.x264-HANDJOB 9.10GB-3.png 魔鬼大战争 The.Great.Yokai.War.2005.JAPANESE.1080p.BluRay.x264-HANDJOB 9.10GB-4.png






VIP会员免费任意下载本站所有资源!---点击开通
回复

使用道具 举报

懒得打字嘛,点击右侧快捷回复 【右侧内容,后台自定义】
您需要登录后才可以回帖 登录 | 立即注册

本版积分规则

QQ|Archiver|手机版|小黑屋| 中国高清网 |网站地图

GMT+8, 2019-9-20 05:37 , Processed in 0.399278 second(s), 39 queries .

Powered by HDchina X3.4

Copyright 2017-2019©HDchina.All right reserved

返回顶部 联系我们