查看: 26|回复: 1

[剧情片] 美国那条黑街/美国那条街 Vice.Squad.1982.720p.BluRay.x264-PSYCHD 5.47GB

[复制链接]

 成长值: 2570

级别:资源管理组

注册时间
2017-10-20
最后登录
2019-9-21
听众
1
收听
0
主题
83009
蓝光币
49645 枚
贡献
7337 点
发表于 2019-9-13 20:48:37 | 显示全部楼层 |阅读模式
美国那条黑街/美国那条街 Vice.Squad.1982.720p.BluRay.x264-PSYCHD 5.47GB-1.png
$ @$ ^3 q; |" e! t& m2 k: I; D2 D+ Z/ y8 E
译  名 美国那条黑街 / 美国那条街 / 虎口胭脂
, I) [+ ~/ @/ ]: T7 w片  名 Vice Squad; R2 m8 T$ T$ }! J
年  代 1982# a) p& S% s0 \) Y$ d$ j3 L
产  地 英国 / 美国: o9 h: a% `' C& R2 F$ _- u; V
类  别 剧情 / 行动 / 惊悚4 H, e! c- X) j. n
语  言 英语
+ T, ]' G! c/ s  ~上映日期 1982-01-22
: \: U7 g" M; ~# KIMDb评分  6.5/10 from 1628 users& W! Z- `- {4 m1 ?( R4 l; J
IMDb链接  http://www.imdb.com/title/tt00848615 a' M  R. X) c# N3 j5 a- Z# J+ D
豆瓣评分 0/10 from 0 users$ D% S1 P5 k) G9 w% Q  x# X: k
豆瓣链接 https://movie.douban.com/subject/1297951/
& L1 ]9 O9 G4 l0 N4 @片  长 97 分钟
$ c! Z$ n7 m# H! v1 Y# S导  演 加里 雪曼 (Gary Sherman)& K0 M+ q- m: ?$ {; I* y
编  剧 Kenneth Peters / Robert Vincent O'Neill / Sandy Howard (I)" T7 Y0 W) i$ v# y% C
主  演 Season Hubley5 N2 O5 t- y) q/ V# Q# c
       维林斯·豪塞尔 Wings Hauser
, v8 O" S% B/ ^       帕皮·塞尔纳 Pepe Serna
, d& e" W4 Z1 ~       贝弗利·陶德 Beverly Todd
7 o, f1 U9 @* n& R" K, \# J7 j7 u0 n6 Z' Z1 g  t
4 k  Z. y' c- W/ F! U$ x% B
标  签 美国 | 犯罪 | 暴力 | 黑帮 | 惊悚 | |妓女 | Gary_Sherman | Film_Noir
+ S0 f* D. P$ }% k# B/ q7 f! R
* x% q5 h2 i: v' t  a简  介  
: a3 z$ j5 _3 E" m1 B& x9 C- D- L/ P# H' s* e  h! z) s
  一位名叫“公主”的洛杉矶女商报酬了赡养自己和她年幼的女儿,在她被汤姆·沃尔什捕快和他的缉私队的帮助下,帮助他们拘系了一位名叫“金格”的妓女的残暴皮条客。但当Ramrod得知自己被放置好后,他从差人的拘留中逃走,起头了一个冗长的夜晚,追捕公主,而沃尔什和他的副队总是紧跟在他死后。$ F$ ~4 k8 _9 \) h0 u
  1. Video! Q' H) E) A6 {1 X5 K" _9 J
  2. ID                                       : 1
    - m! v) M# d" K, ~( ^6 e0 ?
  3. Format                                   : AVC
    9 d1 T9 n, a+ o* ^% f4 @. z- i
  4. Format/Info                              : Advanced Video Codec& S, v4 O" t6 X: f6 Q1 e' _5 ]8 l
  5. Format profile                           : <a href="/cdn-cgi/l/email-protection" class="__cf_email__" data-cfemail="d69ebfb1be969ae2f8e7">[email protected]</a>; T6 P. d) O- i+ j! |$ Y3 }; }
  6. Format settings                          : CABAC / 5 Ref Frames
    3 u0 R9 ?2 w  f( [' q
  7. Format settings, CABAC                   : Yes, K( w. A8 b& I
  8. Format settings, Reference frames        : 5 frames% t7 o- S$ P* x3 k
  9. Codec ID                                 : V_MPEG4/ISO/AVC; u, L. v8 Z- U6 u
  10. Duration                                 : 1 h 37 min
    3 ?+ g) ]$ V: f
  11. Bit rate                                 : 6 552 kb/s- M, u( A1 ?" z! D% {: [; k1 X1 m  B
  12. Width                                    : 1 280 pixels
    ; F! ^0 |$ X+ Y. f6 F! J
  13. Height                                   : 688 pixels
    2 f6 J  |4 T9 h( X9 a, I
  14. Display aspect ratio                     : 1.85:1
    6 f2 b+ e  U7 M$ X
  15. Frame rate mode                          : Constant
    2 y3 U/ y$ _( p
  16. Frame rate                               : 23.976 (24000/1001) FPS
    , l/ g- p/ C7 D
  17. Color space                              : YUV5 E* J% W) T' }
  18. Chroma subsampling                       : 4:2:0
    2 P" K; U6 U5 H) u6 u/ D/ |
  19. Bit depth                                : 8 bits5 n' x- p% N% I- ~3 C/ n) O2 W
  20. Scan type                                : Progressive: [3 O# Y; S1 W, \8 ~8 P$ B3 b
  21. Bits/(Pixel*Frame)                       : 0.310
    & x* O$ l$ z( K
  22. Stream size                              : 4.33 GiB (79%)' A; [+ p( u$ @; u" b, v% p% G
  23. Writing library                          : x264 core 158 r2984 3759fcb
    7 d4 c) \+ y/ Y( q  n/ N
  24. Encoding settings                        : cabac=1 / ref=5 / deblock=1:-3:-3 / analyse=0x3:0x113 / me=umh / subme=8 / psy=1 / psy_rd=1.12:0.00 / mixed_ref=1 / me_range=24 / chroma_me=1 / trellis=2 / 8x8dct=1 / cqm=0 / deadzone=21,11 / fast_pskip=1 / chroma_qp_offset=-2 / threads=21 / lookahead_threads=3 / sliced_threads=0 / nr=0 / decimate=1 / interlaced=0 / bluray_compat=0 / constrained_intra=0 / bframes=3 / b_pyramid=2 / b_adapt=2 / b_bias=0 / direct=3 / weightb=1 / open_gop=0 / weightp=2 / keyint=240 / keyint_min=24 / scenecut=40 / intra_refresh=0 / rc_lookahead=50 / rc=2pass / mbtree=1 / bitrate=6552 / ratetol=1.0 / qcomp=0.60 / qpmin=0 / qpmax=69 / qpstep=4 / cplxblur=20.0 / qblur=0.5 / ip_ratio=1.40 / aq=3:0.707 k# K- }, i# I0 ]0 U/ ~' J) d
  25. Default                                  : Yes9 y/ G# l6 ^; Q2 G1 a% N' i! R
  26. Forced                                   : No
    7 V8 Q% d( w9 \' V1 t
  27. Statistics Tags Issue                    : no_variable_data 1970-01-01 00:00:00 / no_variable_data 2010-02-22 21:41:29
    3 ^6 e) u$ L/ o) j  @& E' {* R
  28. FromStats_BitRate                        : 65519471 L0 M, a  q/ [6 K: Y  y
  29. FromStats_Duration                       : 01:37:00.857000000& q$ L0 k) B. U2 ^
  30. FromStats_FrameCount                     : 139561
    : p7 S' s/ V# m" y
  31. FromStats_StreamSize                     : 4767243482  E7 f' V1 m/ A) v6 _
  32. / {( h& P+ o: r/ n3 N; P
  33. Audio+ s) Y& _. b/ P: q4 j6 n  N) e
  34. ID                                       : 2
    " N; P' O: r8 f
  35. Format                                   : DTS3 y5 y& v! |$ a# i* ^
  36. Format/Info                              : Digital Theater Systems- i! ^2 h. i" `% u/ ~
  37. Codec ID                                 : A_DTS* C- c- m3 x' v  p  `2 {
  38. Duration                                 : 1 h 37 min
    7 W  h. @/ {: `9 L9 e
  39. Bit rate mode                            : Constant: R2 O4 `7 n9 `6 a9 }' p  S
  40. Bit rate                                 : 1 509 kb/s8 W% l9 ~: c" J
  41. Channel(s)                               : 2 channels5 w8 ]: e4 t: w  [
  42. Channel layout                           : L R
    3 _% q/ {' }' L, k6 K5 ]
  43. Sampling rate                            : 48.0 kHz
      [# C, b- J  q7 C7 Q: J
  44. Frame rate                               : 93.750 FPS (512 SPF)% T( |7 _1 }! s9 m4 T7 h
  45. Bit depth                                : 24 bits
    # y- P7 ^8 a6 C. d
  46. Compression mode                         : Lossy* S) x% J% ~' h. l. `1 r+ ^
  47. Stream size                              : 1.02 GiB (19%)
    # P9 h( }6 E1 d  L9 Z- m" u
  48. Language                                 : English
    / d0 E5 N& ]3 a! @3 l, J
  49. Default                                  : Yes) k1 ?- r7 \: L. Q1 U$ ~! n
  50. Forced                                   : No
    9 K# r) o+ |3 }, E
  51. Statistics Tags Issue                    : no_variable_data 1970-01-01 00:00:00 / no_variable_data 2010-02-22 21:41:293 S" x7 W3 a8 J! q7 }$ B
  52. FromStats_BitRate                        : 1509000
    7 i! J6 V+ ~" {/ B/ J
  53. FromStats_Duration                       : 01:37:01.024000000* _  V0 W7 w- d+ z! L8 I4 F
  54. FromStats_FrameCount                     : 545721
    ! P! F% j, f0 d7 N' i
  55. FromStats_StreamSize                     : 1097990652
    . \2 o: o/ n' A
  56. 1 M% R  w2 S3 g, r6 p6 Z- P
  57. Text #1
    & p3 Y0 j- u' W$ Y  f
  58. ID                                       : 3
    - M5 t  p0 g+ i' l' k. k
  59. Format                                   : UTF-8
    1 E- u6 {! n" v* S0 j; z2 U" R, P2 X
  60. Codec ID                                 : S_TEXT/UTF8
    $ o+ w$ M/ f/ d9 M6 d
  61. Codec ID/Info                            : UTF-8 Plain Text% m- i4 T5 h& Y; L- x3 n5 ^" q; {+ O
  62. Language                                 : English
    $ L( S+ Q! P; O- v
  63. Default                                  : No+ F* ^/ k5 F' G% s3 }0 f
  64. Forced                                   : No+ e9 R# @6 M* }
  65. Statistics Tags Issue                    : no_variable_data 1970-01-01 00:00:00 / no_variable_data 2010-02-22 21:41:29; r- M" [, ?5 e2 z* a. y# g
  66. FromStats_BitRate                        : 52- M7 l+ N! e, x+ Z4 h
  67. FromStats_Duration                       : 01:35:48.951000000
    5 a/ D, Z! @3 S  D' H5 R0 E" v
  68. FromStats_FrameCount                     : 14660 n6 ^: _: }! d  d& ^* _9 t9 E- a
  69. FromStats_StreamSize                     : 37699
    ( e& a" N( Q5 f. D# R; }

  70. ! Z3 ^' S# R9 k5 c/ f5 P, w; ?* ^- j
  71. Text #29 n3 Z( ~/ h& T# F6 V
  72. ID                                       : 4
    ! B5 B# d. X0 V
  73. Format                                   : UTF-80 g) B  U" s) H5 A
  74. Codec ID                                 : S_TEXT/UTF8  a) L' V, {/ M8 k, s
  75. Codec ID/Info                            : UTF-8 Plain Text
    9 g' o& G4 C4 P6 U5 I$ F
  76. Title                                    : SDH/ `; `3 K2 \6 n- V
  77. Language                                 : English/ P. T! J1 W2 b# M
  78. Default                                  : No( w/ x+ k4 P* l4 f, U
  79. Forced                                   : No
    - `* n& _8 Y/ P& w: f
  80. Statistics Tags Issue                    : no_variable_data 1970-01-01 00:00:00 / no_variable_data 2010-02-22 21:41:29: N" s/ L; z7 d2 \2 H
  81. FromStats_BitRate                        : 57# i( W* H! i! p& c) Y
  82. FromStats_Duration                       : 01:36:37.458000000' G9 m+ {, y6 i( a$ d: R- o
  83. FromStats_FrameCount                     : 1666
    0 q4 P) Z! }0 D, N% P" ^. V
  84. FromStats_StreamSize                     : 41965
    * v: @9 |8 T6 f) S. L6 o# c% k

  85. + U6 _$ E2 M, O. u& V
  86. Menu
    3 A$ ?. v6 j" K8 e" k) y, @+ E
  87. 00:00:00.000                             : en:Chapter 010 F3 d2 D: Y+ ?
  88. 00:08:49.487                             : en:Chapter 02$ F) H+ n# E" c7 N; M, _
  89. 00:15:31.222                             : en:Chapter 03' W  {5 [0 i  \5 T/ `$ S
  90. 00:23:24.570                             : en:Chapter 04- E& Q- \8 }/ |( b, |5 O9 ^
  91. 00:32:17.519                             : en:Chapter 05
    6 {$ k/ d. c, o5 w/ ~' M* Y1 b
  92. 00:42:35.678                             : en:Chapter 06
    9 b+ K' ?2 F) t% O3 }; k1 T
  93. 00:50:46.001                             : en:Chapter 076 w5 {6 l6 k; X2 ?" [) M/ E# e
  94. 00:58:01.770                             : en:Chapter 08
    , |4 g  T9 {$ J1 h* B& |! x
  95. 01:05:13.743                             : en:Chapter 09
    % J$ [2 C! I+ k3 e) J4 f
  96. 01:15:09.171                             : en:Chapter 10% F) z- y$ J/ W0 j
  97. 01:25:34.129                             : en:Chapter 115 E* u7 Z- `# K$ l. D; P& C+ P
  98. 01:34:05.181                             : en:Chapter 12
复制代码
* L  x, D( S! e4 q
美国那条黑街/美国那条街 Vice.Squad.1982.720p.BluRay.x264-PSYCHD 5.47GB-2.png
  m9 Y( F  |! M% b6 h& N9 G) C9 l0 b7 {% B; W3 g' O

) t+ v3 Y! K) H, Z' {) A
9 c4 `* R1 g) \- k- v
& i7 I8 z  r3 T, I5 @
# y; H+ ]! H7 W& C$ O4 c+ ]
1 V7 r+ l6 i% J3 E/ U# q
VIP会员免费任意下载本站所有资源!---点击开通
回复

使用道具 举报

级别:领衔主演 Lv.6

注册时间
2019-4-24
最后登录
2019-9-20
听众
13
收听
0
主题
0
蓝光币
111 枚
贡献
0 点
发表于 4 天前 | 显示全部楼层
楼主发贴辛苦了,谢谢楼主分享!我觉得中国高清电影网是注册对了!
VIP会员免费任意下载本站所有资源!---点击开通
回复

使用道具 举报

懒得打字嘛,点击右侧快捷回复 【右侧内容,后台自定义】
您需要登录后才可以回帖 登录 | 立即注册

本版积分规则

QQ|Archiver|手机版|小黑屋| 中国高清网 |网站地图

GMT+8, 2019-9-21 15:45 , Processed in 0.517007 second(s), 39 queries .

Powered by HDchina X3.4

Copyright 2017-2019©HDchina.All right reserved

返回顶部 联系我们