查看: 81|回复: 1

[剧情片] 美国那条黑街/美国那条街 Vice.Squad.1982.720p.BluRay.x264-PSYCHD 5.47GB

[复制链接]

 成长值: 3820

级别:资源管理组

注册时间
2017-10-20
最后登录
2020-1-20
听众
1
收听
0
主题
90654
蓝光币
83364 枚
贡献
15016 点
发表于 2019-9-13 20:48:37 | 显示全部楼层 |阅读模式
美国那条黑街/美国那条街 Vice.Squad.1982.720p.BluRay.x264-PSYCHD 5.47GB-1.png . o9 H0 V( w* Q
- c2 s' e/ [, }0 d8 j& [
译  名 美国那条黑街 / 美国那条街 / 虎口胭脂" S7 Z3 x# Y3 I, A& I: d) ]9 x
片  名 Vice Squad2 `! E, I' w) `- S/ j" Z8 Q
年  代 19822 J: h+ f7 t5 K/ [9 b" A  Z. r3 E
产  地 英国 / 美国
" N. y# V+ u& l- f5 L, Y类  别 剧情 / 行动 / 惊悚
7 U" i$ e% L- ^  C: n5 h语  言 英语8 z9 y( m( K6 c4 j, u1 S
上映日期 1982-01-22
" ^1 _# H& O: V: MIMDb评分  6.5/10 from 1628 users
+ i) E. `5 @6 _, a) A7 [, @  ~# `) vIMDb链接  http://www.imdb.com/title/tt0084861
' f8 y: q4 i: W2 J# Z/ w0 T9 a" t豆瓣评分 0/10 from 0 users
! H" I. a$ Q  C4 R1 d/ s/ B豆瓣链接 https://movie.douban.com/subject/1297951/4 c$ H  N: c% F
片  长 97 分钟
) A* \9 w& V  {% g% ?0 @导  演 加里 雪曼 (Gary Sherman): S: N, Q: T; ^0 Z& b
编  剧 Kenneth Peters / Robert Vincent O'Neill / Sandy Howard (I)
! h& n3 Q  L1 i' x, D- }主  演 Season Hubley
9 H9 B; S2 o8 P* F5 z8 {/ P: D       维林斯·豪塞尔 Wings Hauser1 X- P4 U" P5 p3 h5 m. r, h) r7 b6 K
       帕皮·塞尔纳 Pepe Serna+ r. @. }. a% p, @$ j% ~
       贝弗利·陶德 Beverly Todd; |( e; z" x9 j) g% M! Q& u
, p- R8 I& [0 [4 s0 u
/ k1 r* U1 \8 e/ o; i6 t* {! X
标  签 美国 | 犯罪 | 暴力 | 黑帮 | 惊悚 | |妓女 | Gary_Sherman | Film_Noir0 p1 Z4 H9 h# K! c% Z$ d
2 B+ [: O# d+ K0 W+ `# D
简  介  # S0 K- X0 X1 s/ a7 _1 g$ Q: Y

' u% m" @3 S& T# u# }$ K  b( B  一位名叫“公主”的洛杉矶女商报酬了赡养自己和她年幼的女儿,在她被汤姆·沃尔什捕快和他的缉私队的帮助下,帮助他们拘系了一位名叫“金格”的妓女的残暴皮条客。但当Ramrod得知自己被放置好后,他从差人的拘留中逃走,起头了一个冗长的夜晚,追捕公主,而沃尔什和他的副队总是紧跟在他死后。
( z& p/ Q* g2 @; u5 c: T
  1. Video4 Q  v7 r) o8 Q1 G) I  N
  2. ID                                       : 1
    + T' c6 p+ ?/ O. ?" L+ |
  3. Format                                   : AVC
    - v+ n4 h! X' x3 p$ Y9 @3 e7 d
  4. Format/Info                              : Advanced Video Codec
      @" d/ m: H  ~  U! n: r
  5. Format profile                           : <a href="/cdn-cgi/l/email-protection" class="__cf_email__" data-cfemail="d69ebfb1be969ae2f8e7">[email protected]</a>, g2 ^( }+ ^  e' d1 Z
  6. Format settings                          : CABAC / 5 Ref Frames
    1 @" a$ L* A& y# c5 h5 T
  7. Format settings, CABAC                   : Yes/ }: I) i8 l& |& F5 e
  8. Format settings, Reference frames        : 5 frames
    ; ]9 p+ j) g# }% f" a4 I# b
  9. Codec ID                                 : V_MPEG4/ISO/AVC& }( m0 I0 C( o, E- i2 [6 e& O
  10. Duration                                 : 1 h 37 min
    4 r/ `- ~1 L! C5 n2 f6 x& F: S! Z# k- l. I
  11. Bit rate                                 : 6 552 kb/s
    ' B$ c2 G/ [5 G! G) I( \& z2 @
  12. Width                                    : 1 280 pixels
    6 f6 M5 k2 @3 @( P
  13. Height                                   : 688 pixels/ i+ d& o3 g' u$ s1 p- y$ j$ |' m
  14. Display aspect ratio                     : 1.85:14 A$ b! O9 e2 k$ \8 Z
  15. Frame rate mode                          : Constant6 s; Y, N: v; Y' g/ m" D
  16. Frame rate                               : 23.976 (24000/1001) FPS3 g6 y9 z8 [: O6 J3 i; b+ W8 q
  17. Color space                              : YUV8 @  ]4 g6 z$ r; E9 }2 M+ A
  18. Chroma subsampling                       : 4:2:0
    % W" F% O" x. X! {, Z4 u8 A7 W
  19. Bit depth                                : 8 bits, h( h( O9 ~0 r, z1 ?7 i
  20. Scan type                                : Progressive
    ) `9 a/ z& I# v; J6 H6 @5 l
  21. Bits/(Pixel*Frame)                       : 0.310
    4 t' G3 C5 V3 b8 N# P1 D6 T1 g
  22. Stream size                              : 4.33 GiB (79%)( ~% g  q1 P# S
  23. Writing library                          : x264 core 158 r2984 3759fcb% H" s3 a8 W+ y, G( K! K$ j
  24. Encoding settings                        : cabac=1 / ref=5 / deblock=1:-3:-3 / analyse=0x3:0x113 / me=umh / subme=8 / psy=1 / psy_rd=1.12:0.00 / mixed_ref=1 / me_range=24 / chroma_me=1 / trellis=2 / 8x8dct=1 / cqm=0 / deadzone=21,11 / fast_pskip=1 / chroma_qp_offset=-2 / threads=21 / lookahead_threads=3 / sliced_threads=0 / nr=0 / decimate=1 / interlaced=0 / bluray_compat=0 / constrained_intra=0 / bframes=3 / b_pyramid=2 / b_adapt=2 / b_bias=0 / direct=3 / weightb=1 / open_gop=0 / weightp=2 / keyint=240 / keyint_min=24 / scenecut=40 / intra_refresh=0 / rc_lookahead=50 / rc=2pass / mbtree=1 / bitrate=6552 / ratetol=1.0 / qcomp=0.60 / qpmin=0 / qpmax=69 / qpstep=4 / cplxblur=20.0 / qblur=0.5 / ip_ratio=1.40 / aq=3:0.70
    ; L( x( n& i1 q  w- K% I. ]7 u
  25. Default                                  : Yes( o* A3 ^! U, n+ n  z* m% T( k
  26. Forced                                   : No
    3 G6 U; s2 i/ D/ ~$ ^" {6 ^
  27. Statistics Tags Issue                    : no_variable_data 1970-01-01 00:00:00 / no_variable_data 2010-02-22 21:41:29; S# Q( V4 `- ^2 u* t
  28. FromStats_BitRate                        : 6551947$ C0 t5 v+ d6 y
  29. FromStats_Duration                       : 01:37:00.857000000
    / V, b6 N1 ]" m; {+ v
  30. FromStats_FrameCount                     : 139561% m; w; i+ ]: ^- V+ k6 o
  31. FromStats_StreamSize                     : 4767243482
    8 l1 M1 g3 ~# R0 _: G, P- Z+ n

  32. : K: t3 ^/ p. y
  33. Audio
    * C3 h3 g+ X7 U6 G5 D; r. k' c, w
  34. ID                                       : 2  H9 t6 q" b5 G0 V# D  x
  35. Format                                   : DTS
    6 l9 F* T+ l# i0 w
  36. Format/Info                              : Digital Theater Systems
    1 V3 ~% P# A) C  T  @5 g2 t+ J' V% h
  37. Codec ID                                 : A_DTS; x# K, Z% E/ C- i
  38. Duration                                 : 1 h 37 min
    % x( G6 o2 _  a$ U8 V1 V- ~
  39. Bit rate mode                            : Constant) \* F' r7 Q& t) W- A7 d" I$ p
  40. Bit rate                                 : 1 509 kb/s
    % T1 Y4 V$ @2 u0 p
  41. Channel(s)                               : 2 channels4 j' I( q4 c, k& j
  42. Channel layout                           : L R1 h: k4 i8 n6 e$ a& Q) F" ]
  43. Sampling rate                            : 48.0 kHz
    ( k- X/ X0 g7 a' N9 d9 Z6 n
  44. Frame rate                               : 93.750 FPS (512 SPF): s; Z5 g; W: o& v; U' n
  45. Bit depth                                : 24 bits: E  [- u& v( G+ g
  46. Compression mode                         : Lossy1 _% K9 r9 B# }( h
  47. Stream size                              : 1.02 GiB (19%)
    3 n8 M8 @( I$ J# G+ \, G/ E4 P
  48. Language                                 : English$ v3 D. A/ \. ^) ?
  49. Default                                  : Yes. |2 W6 Z) n/ J' D
  50. Forced                                   : No; P% U; _: ]% b
  51. Statistics Tags Issue                    : no_variable_data 1970-01-01 00:00:00 / no_variable_data 2010-02-22 21:41:29
    ; ^3 u- C9 e# s* i; Z6 M/ w
  52. FromStats_BitRate                        : 1509000  S1 T; j: x6 x( H7 z/ s* Z7 Z" E9 L( w
  53. FromStats_Duration                       : 01:37:01.024000000
    & E7 V' l1 O3 D' H' \3 O
  54. FromStats_FrameCount                     : 545721( F( k1 D, E3 G$ }- G% @, b! j
  55. FromStats_StreamSize                     : 1097990652, J* P: f( E- E- x" o- f
  56.   e/ a/ O0 R3 G, Z
  57. Text #1" {& y' I6 W  V5 g' ]4 j- Y! O
  58. ID                                       : 3
    " |% o1 N/ s, O+ l2 s3 n9 [
  59. Format                                   : UTF-85 h# m8 D' ^* }* L8 k. p5 W' k2 z
  60. Codec ID                                 : S_TEXT/UTF8" y0 Y. b% W# h( C7 T+ r
  61. Codec ID/Info                            : UTF-8 Plain Text
    4 q4 e; t2 c1 ~6 @0 D- e6 j
  62. Language                                 : English/ D6 K( R: x2 x7 |. G. _% A
  63. Default                                  : No( x! C7 }4 g6 A* a7 B4 Z0 z9 `2 `  C
  64. Forced                                   : No0 R! x3 [3 i' S
  65. Statistics Tags Issue                    : no_variable_data 1970-01-01 00:00:00 / no_variable_data 2010-02-22 21:41:29
    9 Y* ]4 D1 R) X/ U: ^
  66. FromStats_BitRate                        : 52
    6 z( i3 I$ f0 k
  67. FromStats_Duration                       : 01:35:48.951000000
    $ H' Z& [/ c( e! \, I. W
  68. FromStats_FrameCount                     : 1466+ p4 }8 E2 e" C4 F
  69. FromStats_StreamSize                     : 376999 P% K7 q) w# r1 H

  70. : _8 _& F* H. {* E' x2 X7 d
  71. Text #2# q5 i" F/ L! v6 g" Z
  72. ID                                       : 4
    # d7 M# i+ o: D2 |
  73. Format                                   : UTF-8
    ; U# m$ ~/ b, Z: E
  74. Codec ID                                 : S_TEXT/UTF84 D" `) F7 c: o- N9 ^" p+ p
  75. Codec ID/Info                            : UTF-8 Plain Text' ?: n; w% d& g8 H8 C
  76. Title                                    : SDH! g& D- n& l" v
  77. Language                                 : English
    5 p1 y) z% V. R+ |, \+ d* F9 i7 U
  78. Default                                  : No
    ( V8 R2 O; }3 d1 `+ a- k) m, D
  79. Forced                                   : No
    # r4 q3 u" E/ r% K. [; E" C
  80. Statistics Tags Issue                    : no_variable_data 1970-01-01 00:00:00 / no_variable_data 2010-02-22 21:41:29
    ) _2 o* y& }* {4 e5 ~
  81. FromStats_BitRate                        : 57; r1 w" y1 N4 t" B7 N
  82. FromStats_Duration                       : 01:36:37.4580000001 U* z2 M3 j9 }6 }. t/ r. U
  83. FromStats_FrameCount                     : 1666
    ' Z0 z5 B  O: e" v7 j$ y
  84. FromStats_StreamSize                     : 41965& J7 k! T5 O5 n  |1 }0 F# [

  85. " j) m# m3 i$ R, Q, r
  86. Menu# m, ?9 s5 o% |% L" N) @0 ^
  87. 00:00:00.000                             : en:Chapter 01
    - j( h- t! h- g; b$ S3 [2 Z
  88. 00:08:49.487                             : en:Chapter 02) I1 e0 i; G0 n* k
  89. 00:15:31.222                             : en:Chapter 03
    8 t/ y  N" p: h8 |% K5 d2 I' o+ |  r
  90. 00:23:24.570                             : en:Chapter 042 L1 e; C+ T" X  Y# I" ^
  91. 00:32:17.519                             : en:Chapter 05! o/ |2 p  }* c& \6 e" g  ~7 f  P
  92. 00:42:35.678                             : en:Chapter 06# K% B" i" x7 D
  93. 00:50:46.001                             : en:Chapter 07
    . s, _3 g6 m7 }. u
  94. 00:58:01.770                             : en:Chapter 08
    3 V/ S6 H- ?3 j) k- S2 z
  95. 01:05:13.743                             : en:Chapter 092 w6 t1 G( q! S: F3 p" f
  96. 01:15:09.171                             : en:Chapter 10
    / d. @) f& i* ]/ ?* f) u
  97. 01:25:34.129                             : en:Chapter 11" Q6 V/ o% [- i. @2 F- F
  98. 01:34:05.181                             : en:Chapter 12
复制代码

3 \2 i* A& _0 o# p# j% c 美国那条黑街/美国那条街 Vice.Squad.1982.720p.BluRay.x264-PSYCHD 5.47GB-2.png 1 ^3 Z6 `4 x8 E. C# u# L0 p

5 O3 L4 F1 I4 W; c' Q$ _) x
+ n" s6 s# g2 Q  Y: d
/ f3 O5 v6 Q! a& P
; M; ]  W! l- _0 o, I6 G5 I1 r5 n5 T( l" S8 o" v1 d

; e. E7 I  ~1 @  M% ~4 ]6 b4 a5 F
VIP会员免费任意下载本站所有资源!---点击开通
回复

使用道具 举报

级别:一线明星 Lv.8

注册时间
2019-4-24
最后登录
2020-1-19
听众
14
收听
0
主题
0
蓝光币
260 枚
贡献
0 点
发表于 2019-9-17 08:43:09 | 显示全部楼层
楼主发贴辛苦了,谢谢楼主分享!我觉得中国高清电影网是注册对了!
VIP会员免费任意下载本站所有资源!---点击开通
回复

使用道具 举报

懒得打字嘛,点击右侧快捷回复 【右侧内容,后台自定义】
您需要登录后才可以回帖 登录 | 立即注册

本版积分规则

Archiver|手机版|小黑屋| 中国高清网 |网站地图

GMT+8, 2020-1-20 15:38 , Processed in 0.273470 second(s), 37 queries .

Powered by HDchina X3.4

Copyright 2017-2019©HDchina.All right reserved

返回顶部 联系我们