查看: 37|回复: 0

[剧情片] 美国那条黑街/美国那条街 Vice.Squad.1982.1080p.BluRay.x264-PSYCHD 9.85GB

[复制链接]

 成长值: 2570

级别:资源管理组

注册时间
2017-10-20
最后登录
2019-9-21
听众
1
收听
0
主题
83026
蓝光币
49777 枚
贡献
7354 点
发表于 2019-9-13 20:46:59 | 显示全部楼层 |阅读模式
美国那条黑街/美国那条街 Vice.Squad.1982.1080p.BluRay.x264-PSYCHD 9.85GB-1.png

译  名 美国那条黑街 / 美国那条街 / 虎口胭脂
片  名 Vice Squad
年  代 1982
产  地 英国 / 美国
类  别 剧情 / 行动 / 惊悚
语  言 英语
上映日期 1982-01-22
IMDb评分  6.5/10 from 1628 users
IMDb链接  http://www.imdb.com/title/tt0084861
豆瓣评分 0/10 from 0 users
豆瓣链接 https://movie.douban.com/subject/1297951/
片  长 97 分钟
导  演 加里 雪曼 (Gary Sherman)
编  剧 Kenneth Peters / Robert Vincent O'Neill / Sandy Howard (I)
主  演 Season Hubley
       维林斯·豪塞尔 Wings Hauser
       帕皮·塞尔纳 Pepe Serna
       贝弗利·陶德 Beverly Todd


标  签 美国 | 犯罪 | 暴力 | 黑帮 | 惊悚 | |妓女 | Gary_Sherman | Film_Noir

简  介  

  一位名叫“公主”的洛杉矶女商报酬了赡养自己和她年幼的女儿,在她被汤姆·沃尔什捕快和他的缉私队的帮助下,帮助他们拘系了一位名叫“金格”的妓女的残暴皮条客。但当Ramrod得知自己被放置好后,他从差人的拘留中逃走,起头了一个冗长的夜晚,追捕公主,而沃尔什和他的副队总是紧跟在他死后。
  1. Video
  2. ID                                       : 1
  3. Format                                   : AVC
  4. Format/Info                              : Advanced Video Codec
  5. Format profile                           : <a href="/cdn-cgi/l/email-protection" class="__cf_email__" data-cfemail="d79fbeb0bf979be3f9e6">[email protected]</a>
  6. Format settings                          : CABAC / 4 Ref Frames
  7. Format settings, CABAC                   : Yes
  8. Format settings, Reference frames        : 4 frames
  9. Codec ID                                 : V_MPEG4/ISO/AVC
  10. Duration                                 : 1 h 37 min
  11. Bit rate                                 : 13.0 Mb/s
  12. Width                                    : 1 920 pixels
  13. Height                                   : 1 040 pixels
  14. Display aspect ratio                     : 1.85:1
  15. Frame rate mode                          : Constant
  16. Frame rate                               : 23.976 (24000/1001) FPS
  17. Color space                              : YUV
  18. Chroma subsampling                       : 4:2:0
  19. Bit depth                                : 8 bits
  20. Scan type                                : Progressive
  21. Bits/(Pixel*Frame)                       : 0.272
  22. Stream size                              : 8.62 GiB (88%)
  23. Writing library                          : x264 core 158 r2984 3759fcb
  24. Encoding settings                        : cabac=1 / ref=4 / deblock=1:-3:-3 / analyse=0x3:0x113 / me=umh / subme=8 / psy=1 / psy_rd=1.12:0.00 / mixed_ref=1 / me_range=32 / chroma_me=1 / trellis=2 / 8x8dct=1 / cqm=0 / deadzone=21,11 / fast_pskip=1 / chroma_qp_offset=-2 / threads=32 / lookahead_threads=5 / sliced_threads=0 / nr=0 / decimate=1 / interlaced=0 / bluray_compat=0 / constrained_intra=0 / bframes=3 / b_pyramid=2 / b_adapt=2 / b_bias=0 / direct=3 / weightb=1 / open_gop=0 / weightp=2 / keyint=240 / keyint_min=24 / scenecut=40 / intra_refresh=0 / rc_lookahead=50 / rc=2pass / mbtree=1 / bitrate=13008 / ratetol=1.0 / qcomp=0.60 / qpmin=0 / qpmax=69 / qpstep=4 / cplxblur=20.0 / qblur=0.5 / ip_ratio=1.40 / aq=3:0.70
  25. Default                                  : Yes
  26. Forced                                   : No
  27. Statistics Tags Issue                    : no_variable_data 1970-01-01 00:00:00 / no_variable_data 2010-02-22 21:41:29
  28. FromStats_BitRate                        : 13007984
  29. FromStats_Duration                       : 01:37:00.857000000
  30. FromStats_FrameCount                     : 139561
  31. FromStats_StreamSize                     : 9464701900

  32. Audio
  33. ID                                       : 2
  34. Format                                   : DTS
  35. Format/Info                              : Digital Theater Systems
  36. Codec ID                                 : A_DTS
  37. Duration                                 : 1 h 37 min
  38. Bit rate mode                            : Constant
  39. Bit rate                                 : 1 509 kb/s
  40. Channel(s)                               : 2 channels
  41. Channel layout                           : L R
  42. Sampling rate                            : 48.0 kHz
  43. Frame rate                               : 93.750 FPS (512 SPF)
  44. Bit depth                                : 24 bits
  45. Compression mode                         : Lossy
  46. Stream size                              : 1.02 GiB (10%)
  47. Language                                 : English
  48. Default                                  : Yes
  49. Forced                                   : No
  50. Statistics Tags Issue                    : no_variable_data 1970-01-01 00:00:00 / no_variable_data 2010-02-22 21:41:29
  51. FromStats_BitRate                        : 1509000
  52. FromStats_Duration                       : 01:37:01.024000000
  53. FromStats_FrameCount                     : 545721
  54. FromStats_StreamSize                     : 1097990652

  55. Text #1
  56. ID                                       : 3
  57. Format                                   : UTF-8
  58. Codec ID                                 : S_TEXT/UTF8
  59. Codec ID/Info                            : UTF-8 Plain Text
  60. Language                                 : English
  61. Default                                  : No
  62. Forced                                   : No
  63. Statistics Tags Issue                    : no_variable_data 1970-01-01 00:00:00 / no_variable_data 2010-02-22 21:41:29
  64. FromStats_BitRate                        : 52
  65. FromStats_Duration                       : 01:35:48.951000000
  66. FromStats_FrameCount                     : 1466
  67. FromStats_StreamSize                     : 37699

  68. Text #2
  69. ID                                       : 4
  70. Format                                   : UTF-8
  71. Codec ID                                 : S_TEXT/UTF8
  72. Codec ID/Info                            : UTF-8 Plain Text
  73. Title                                    : SDH
  74. Language                                 : English
  75. Default                                  : No
  76. Forced                                   : No
  77. Statistics Tags Issue                    : no_variable_data 1970-01-01 00:00:00 / no_variable_data 2010-02-22 21:41:29
  78. FromStats_BitRate                        : 57
  79. FromStats_Duration                       : 01:36:37.458000000
  80. FromStats_FrameCount                     : 1666
  81. FromStats_StreamSize                     : 41965

  82. Menu
  83. 00:00:00.000                             : en:Chapter 01
  84. 00:08:49.487                             : en:Chapter 02
  85. 00:15:31.222                             : en:Chapter 03
  86. 00:23:24.570                             : en:Chapter 04
  87. 00:32:17.519                             : en:Chapter 05
  88. 00:42:35.678                             : en:Chapter 06
  89. 00:50:46.001                             : en:Chapter 07
  90. 00:58:01.770                             : en:Chapter 08
  91. 01:05:13.743                             : en:Chapter 09
  92. 01:15:09.171                             : en:Chapter 10
  93. 01:25:34.129                             : en:Chapter 11
  94. 01:34:05.181                             : en:Chapter 12
复制代码

美国那条黑街/美国那条街 Vice.Squad.1982.1080p.BluRay.x264-PSYCHD 9.85GB-2.png





VIP会员免费任意下载本站所有资源!---点击开通
回复

使用道具 举报

懒得打字嘛,点击右侧快捷回复 【右侧内容,后台自定义】
您需要登录后才可以回帖 登录 | 立即注册

本版积分规则

QQ|Archiver|手机版|小黑屋| 中国高清网 |网站地图

GMT+8, 2019-9-21 21:32 , Processed in 0.446640 second(s), 39 queries .

Powered by HDchina X3.4

Copyright 2017-2019©HDchina.All right reserved

返回顶部 联系我们