查看: 12|回复: 0

[喜剧片] 美国傻瓜/美国白痴 American.Idiots.2013.1080p.AMZN.WEBRip.DDP5.1.x264-monkee 6.40GB

[复制链接]

 成长值: 2560

级别:资源管理组

注册时间
2017-10-20
最后登录
2019-9-19
听众
1
收听
0
主题
82921
蓝光币
49296 枚
贡献
7249 点
发表于 7 天前 | 显示全部楼层 |阅读模式
美国傻瓜/美国痴人 American.Idiots.2013.1080p.AMZN.WEBRip.DDP5.1.x264-monkee 6.40GB-1.png

译  名 美国傻瓜 / 美国痴人
片  名 American Idiots
年  代 2013
产  地 美国
类  别 笑剧 / 恋爱
语  言 英语
上映日期 2013-06-18(美国)
IMDb评分  2.1/10 from 664 users
IMDb链接  http://www.imdb.com/title/tt1698651
豆瓣评分 3.3/10 from 62 users
豆瓣链接 https://movie.douban.com/subject/24838484/
片  长 92分钟
导  演 Robert Taleghany
编  剧 Jeffrey T. Schoettlin
主  演 Jeffrey T. Schoettlin
       Sean Muramatsu
       卡洛琳·德阿莫 Caroline D'Amore
       彼得·道博森 Peter Dobson
       Madeline Merritt
       Kelly Donohue
       Scott Krinsky


标  签 笑剧 | 青春 | 美国 | 公路 | 2013 | 美国电影 | 电影 | 音乐

简  介  

  三个配角虽是一路长大的朋友,却各自走入迥然分歧的命运:一个当了年轻爸爸放弃原本钟爱的音乐、一个在大都会打混,一度染上毒瘾、还有一个加入军队,在伊拉克战争落空双腿…… Green Day的主唱阿姆斯壮和音乐剧导演想要显现一个活在我们方圆的失落的世代,他们跟嬉皮士们一样,生活在这个缭乱的国际政治大情况中,渴望形塑出属于他们的命运。但由于缺少理想,或是他们的理想被强行置入自觉标爱国主义,蓦地回首才发现自己已经错过了美好的青春风光。
  1. Video
  2. ID                                       : 1
  3. Format                                   : AVC
  4. Format/Info                              : Advanced Video Codec
  5. Format profile                           : <a href="/cdn-cgi/l/email-protection" class="__cf_email__" data-cfemail="88c0e1efe0c8c4bc">[email protected]</a>
  6. Format settings                          : CABAC / 4 Ref Frames
  7. Format settings, CABAC                   : Yes
  8. Format settings, Reference frames        : 4 frames
  9. Codec ID                                 : V_MPEG4/ISO/AVC
  10. Duration                                 : 1 h 31 min
  11. Bit rate mode                            : Constant
  12. Bit rate                                 : 9 353 kb/s
  13. Nominal bit rate                         : 10 000 kb/s
  14. Width                                    : 1 920 pixels
  15. Height                                   : 1 080 pixels
  16. Display aspect ratio                     : 16:9
  17. Frame rate mode                          : Constant
  18. Frame rate                               : 23.976 (24000/1001) FPS
  19. Color space                              : YUV
  20. Chroma subsampling                       : 4:2:0
  21. Bit depth                                : 8 bits
  22. Scan type                                : Progressive
  23. Bits/(Pixel*Frame)                       : 0.188
  24. Stream size                              : 5.99 GiB (94%)
  25. Default                                  : Yes
  26. Forced                                   : No
  27. Color range                              : Limited
  28. Color primaries                          : BT.709
  29. Transfer characteristics                 : BT.709
  30. Matrix coefficients                      : BT.709

  31. Audio
  32. ID                                       : 2
  33. Format                                   : E-AC-3
  34. Format/Info                              : Enhanced AC-3
  35. Commercial name                          : Dolby Digital Plus
  36. Codec ID                                 : A_EAC3
  37. Duration                                 : 1 h 31 min
  38. Bit rate mode                            : Constant
  39. Bit rate                                 : 640 kb/s
  40. Channel(s)                               : 6 channels
  41. Channel layout                           : L R C LFE Ls Rs
  42. Sampling rate                            : 48.0 kHz
  43. Frame rate                               : 31.250 FPS (1536 SPF)
  44. Compression mode                         : Lossy
  45. Stream size                              : 419 MiB (6%)
  46. Language                                 : English
  47. Service kind                             : Complete Main
  48. Default                                  : Yes
  49. Forced                                   : No

  50. Text #1
  51. ID                                       : 3
  52. Format                                   : UTF-8
  53. Codec ID                                 : S_TEXT/UTF8
  54. Codec ID/Info                            : UTF-8 Plain Text
  55. Duration                                 : 1 h 31 min
  56. Bit rate                                 : 84 b/s
  57. Count of elements                        : 1703
  58. Stream size                              : 56.2 KiB (0%)
  59. Language                                 : English
  60. Default                                  : No
  61. Forced                                   : No

  62. Text #2
  63. ID                                       : 4
  64. Format                                   : UTF-8
  65. Codec ID                                 : S_TEXT/UTF8
  66. Codec ID/Info                            : UTF-8 Plain Text
  67. Duration                                 : 1 h 31 min
  68. Bit rate                                 : 89 b/s
  69. Count of elements                        : 1794
  70. Stream size                              : 59.6 KiB (0%)
  71. Title                                    : SDH
  72. Language                                 : English
  73. Default                                  : No
  74. Forced                                   : No
复制代码

美国傻瓜/美国痴人 American.Idiots.2013.1080p.AMZN.WEBRip.DDP5.1.x264-monkee 6.40GB-2.png 美国傻瓜/美国痴人 American.Idiots.2013.1080p.AMZN.WEBRip.DDP5.1.x264-monkee 6.40GB-3.png 美国傻瓜/美国痴人 American.Idiots.2013.1080p.AMZN.WEBRip.DDP5.1.x264-monkee 6.40GB-4.png






VIP会员免费任意下载本站所有资源!---点击开通
回复

使用道具 举报

懒得打字嘛,点击右侧快捷回复 【右侧内容,后台自定义】
您需要登录后才可以回帖 登录 | 立即注册

本版积分规则

QQ|Archiver|手机版|小黑屋| 中国高清网 |网站地图

GMT+8, 2019-9-20 05:41 , Processed in 0.454259 second(s), 39 queries .

Powered by HDchina X3.4

Copyright 2017-2019©HDchina.All right reserved

返回顶部 联系我们