查看: 13|回复: 0

[剧情片] 欲拒还迎 Black.Venus.1983.1080p.AMZN.WEBRip.DDP2.0.x264-ABM 9.83GB

[复制链接]

 成长值: 2570

级别:资源管理组

注册时间
2017-10-20
最后登录
2019-9-21
听众
1
收听
0
主题
83009
蓝光币
49621 枚
贡献
7337 点
发表于 2019-9-13 18:18:15 | 显示全部楼层 |阅读模式
欲拒还迎 Black.Venus.1983.1080p.AMZN.WEBRip.DDP2.0.x264-ABM 9.83GB-1.png

译  名 欲拒还迎 / La Venus negra
片  名 Black Venus
年  代 1983
产  地 西班牙 / 美国
类  别 剧情
语  言 法语
上映日期 1983-01-05
IMDb评分  4.5/10 from 309 users
IMDb链接  http://www.imdb.com/title/tt0085249
豆瓣评分 0/10 from 0 users
豆瓣链接 https://movie.douban.com/subject/1305887/
片  长 Netherlands: 86 分钟
导  演 Claude Mulot
编  剧 Harry Alan Towers
主  演 Josephine Jacqueline Jones
       José Antonio Ceinos
       Emiliano Redondo
       Helga Liné
       Florence Guérin
       Mandy Rice-Davies
       卡琳·舒伯特


标  签 情色 | 法国 | 西班牙电影 | 法国电影 | Claude | 西班牙 | 想看这部电影 | 工作者

简  介  

  暂无相关剧情先容
  1. Video
  2. ID                                       : 1
  3. Format                                   : AVC
  4. Format/Info                              : Advanced Video Codec
  5. Format profile                           : <a href="/cdn-cgi/l/email-protection" class="__cf_email__" data-cfemail="bcf4d5dbd4fcf088">[email protected]</a>
  6. Format settings                          : CABAC / 4 Ref Frames
  7. Format settings, CABAC                   : Yes
  8. Format settings, Reference frames        : 4 frames
  9. Codec ID                                 : V_MPEG4/ISO/AVC
  10. Duration                                 : 1 h 35 min
  11. Bit rate mode                            : Variable
  12. Bit rate                                 : 14.3 Mb/s
  13. Maximum bit rate                         : 15.0 Mb/s
  14. Width                                    : 1 800 pixels
  15. Height                                   : 1 080 pixels
  16. Display aspect ratio                     : 5:3
  17. Frame rate mode                          : Constant
  18. Frame rate                               : 23.976 (24000/1001) FPS
  19. Color space                              : YUV
  20. Chroma subsampling                       : 4:2:0
  21. Bit depth                                : 8 bits
  22. Scan type                                : Progressive
  23. Bits/(Pixel*Frame)                       : 0.306
  24. Stream size                              : 9.49 GiB (96%)
  25. Language                                 : English
  26. Default                                  : Yes
  27. Forced                                   : No
  28. Color range                              : Limited
  29. Color primaries                          : BT.709
  30. Transfer characteristics                 : BT.709
  31. Matrix coefficients                      : BT.709

  32. Audio
  33. ID                                       : 2
  34. Format                                   : E-AC-3
  35. Format/Info                              : Enhanced AC-3
  36. Commercial name                          : Dolby Digital Plus
  37. Codec ID                                 : A_EAC3
  38. Duration                                 : 1 h 35 min
  39. Bit rate mode                            : Constant
  40. Bit rate                                 : 224 kb/s
  41. Channel(s)                               : 2 channels
  42. Channel layout                           : L R
  43. Sampling rate                            : 48.0 kHz
  44. Frame rate                               : 31.250 FPS (1536 SPF)
  45. Compression mode                         : Lossy
  46. Stream size                              : 153 MiB (2%)
  47. Language                                 : English
  48. Service kind                             : Complete Main
  49. Default                                  : Yes
  50. Forced                                   : No
复制代码

欲拒还迎 Black.Venus.1983.1080p.AMZN.WEBRip.DDP2.0.x264-ABM 9.83GB-2.png 欲拒还迎 Black.Venus.1983.1080p.AMZN.WEBRip.DDP2.0.x264-ABM 9.83GB-3.png






VIP会员免费任意下载本站所有资源!---点击开通
回复

使用道具 举报

懒得打字嘛,点击右侧快捷回复 【右侧内容,后台自定义】
您需要登录后才可以回帖 登录 | 立即注册

本版积分规则

QQ|Archiver|手机版|小黑屋| 中国高清网 |网站地图

GMT+8, 2019-9-21 14:41 , Processed in 0.373670 second(s), 39 queries .

Powered by HDchina X3.4

Copyright 2017-2019©HDchina.All right reserved

返回顶部 联系我们