查看: 11|回复: 0

[喜剧片] 王牌追杀令 Homegrown.1998.1080p.AMZN.WEBRip.DDP5.1.x264-monkee 7.37GB

[复制链接]

 成长值: 2570

级别:资源管理组

注册时间
2017-10-20
最后登录
2019-9-21
听众
1
收听
0
主题
83026
蓝光币
49759 枚
贡献
7354 点
发表于 2019-9-13 18:15:41 | 显示全部楼层 |阅读模式
MV5BOTg5Njc2ZDgtZWM5Mi00MDVmLWE2MGMtZjc4YjYwNzk2ZDhhXkEyXkFqcGdeQXVyMTQxNzMzNDI@._V1_.jpg

译  名 王牌追杀令
片  名 Homegrown
年  代 1998
产  地 美国
类  别 笑剧 / 惊悚
语  言 英语
上映日期 1998-04-17
IMDb评分  5.8/10 from 4355 users
IMDb链接  http://www.imdb.com/title/tt0119305
豆瓣评分 0/10 from 0 users
豆瓣链接 https://movie.douban.com/subject/1293615/
片  长 102 分钟
导  演 斯蒂芬 格尔伦豪尔 (Stephen Gyllenhaal)
编  剧 Jonah Raskin / 尼古拉斯 凯赞 (Nicholas Kazan) / 斯蒂芬 格尔伦豪尔 (Stephen Gyllenhaal)
主  演 Bon Jovi


标  签 美国 | 美国电影 | 电影 | 惊悚 | 笑剧 | RyanPhillippe | JonBonJovi | Homegrown

简  介  

  杰克、卡特和哈兰的生活对他们来说是美好的。这三小我都是些能干的内行,他们帮助治理着北加利福尼亚某个地方的毒品种植大师Malcoms。但随后马尔科姆忽然被一个奥秘的进犯者撞死,在一阵发急以后,天真的三人决议自己接收公司。但是,他们在毒品农场的慵懒日子并没有让他们为数百万美圆的违禁品寻觅买家的高风险游戏做好预备。当他们一头扎进一个布满欺骗、两面三刀和危险的阴晦新天下时,他们很快就发现自己已经超出了他们的头顶。但在日益增加的贪心和偏执的驱使下,想要放弃已经太迟了。
  1. Video
  2. ID                                       : 1
  3. Format                                   : AVC
  4. Format/Info                              : Advanced Video Codec
  5. Format profile                           : <a href="/cdn-cgi/l/email-protection" class="__cf_email__" data-cfemail="7830111f1038344c">[email protected]</a>
  6. Format settings                          : CABAC / 4 Ref Frames
  7. Format settings, CABAC                   : Yes
  8. Format settings, Reference frames        : 4 frames
  9. Codec ID                                 : V_MPEG4/ISO/AVC
  10. Duration                                 : 1 h 42 min
  11. Bit rate mode                            : Constant
  12. Bit rate                                 : 10 000 kb/s
  13. Width                                    : 1 920 pixels
  14. Height                                   : 1 080 pixels
  15. Display aspect ratio                     : 16:9
  16. Frame rate mode                          : Constant
  17. Frame rate                               : 23.976 (24000/1001) FPS
  18. Color space                              : YUV
  19. Chroma subsampling                       : 4:2:0
  20. Bit depth                                : 8 bits
  21. Scan type                                : Progressive
  22. Bits/(Pixel*Frame)                       : 0.201
  23. Stream size                              : 6.91 GiB (94%)
  24. Default                                  : Yes
  25. Forced                                   : No
  26. Color range                              : Limited
  27. Color primaries                          : BT.709
  28. Transfer characteristics                 : BT.709
  29. Matrix coefficients                      : BT.709

  30. Audio
  31. ID                                       : 2
  32. Format                                   : E-AC-3
  33. Format/Info                              : Enhanced AC-3
  34. Commercial name                          : Dolby Digital Plus
  35. Codec ID                                 : A_EAC3
  36. Duration                                 : 1 h 42 min
  37. Bit rate mode                            : Constant
  38. Bit rate                                 : 640 kb/s
  39. Channel(s)                               : 6 channels
  40. Channel layout                           : L R C LFE Ls Rs
  41. Sampling rate                            : 48.0 kHz
  42. Frame rate                               : 31.250 FPS (1536 SPF)
  43. Compression mode                         : Lossy
  44. Stream size                              : 468 MiB (6%)
  45. Language                                 : English
  46. Service kind                             : Complete Main
  47. Default                                  : Yes
  48. Forced                                   : No
复制代码

王牌追杀令 Homegrown.1998.1080p.AMZN.WEBRip.DDP5.1.x264-monkee 7.37GB-1.png 王牌追杀令 Homegrown.1998.1080p.AMZN.WEBRip.DDP5.1.x264-monkee 7.37GB-2.png 王牌追杀令 Homegrown.1998.1080p.AMZN.WEBRip.DDP5.1.x264-monkee 7.37GB-3.png






VIP会员免费任意下载本站所有资源!---点击开通
回复

使用道具 举报

懒得打字嘛,点击右侧快捷回复 【右侧内容,后台自定义】
您需要登录后才可以回帖 登录 | 立即注册

本版积分规则

QQ|Archiver|手机版|小黑屋| 中国高清网 |网站地图

GMT+8, 2019-9-21 20:57 , Processed in 0.383504 second(s), 39 queries .

Powered by HDchina X3.4

Copyright 2017-2019©HDchina.All right reserved

返回顶部 联系我们