查看: 15|回复: 0

[纪录片] 辣妞征集/搜寻辣妹 Hot.Girls.Wanted.2015.1080p.NF.WEBRip.DDP2.0.x264-AJP69 4.32GB

[复制链接]

 成长值: 2570

级别:资源管理组

注册时间
2017-10-20
最后登录
2019-9-21
听众
1
收听
0
主题
83009
蓝光币
49635 枚
贡献
7337 点
发表于 2019-9-13 18:13:57 | 显示全部楼层 |阅读模式
辣妞征集/搜寻辣妹 Hot.Girls.Wanted.2015.1080p.NF.WEBRip.DDP2.0.x264-AJP69 4.32GB-1.png

译  名 辣妞征集 / 搜寻辣妹
片  名 Hot Girls Wanted
年  代 2015
产  地 美国
类  别 记载片
语  言 英语
上映日期 2015-01-24
IMDb评分  6.1/10 from 14018 users
IMDb链接  http://www.imdb.com/title/tt4382552
豆瓣评分 6.6/10 from 2610 users
豆瓣链接 https://movie.douban.com/subject/26276371/
片  长 84分钟
导  演 Jill Bauer / Ronna Gradus
主  演 Farrah Abraham
       John Anthony
       Rachel Bernard


标  签 记载片 | 美国 | 情色 | 2015 | Netflix | 美国电影 | 女性 | 女权

简  介  

  是自在还是叛逆?是本性还是出错?国外有着这样的一群年轻女孩,她们涉世未深,她们不满怙恃与现实的约束。在18-21岁这样一个懵懂而又美好的年数里接管了金钱的引诱进入了桃色产业。记载片《辣妞征集》带你走进她们背后的故事,明白其心路过程。

获奖情况  

  第31届圣丹斯电影节(2015)
  评审团大奖 记载片(提名)
  1. Video
  2. ID                                       : 1
  3. Format                                   : AVC
  4. Format/Info                              : Advanced Video Codec
  5. Format profile                           : <a href="/cdn-cgi/l/email-protection" class="__cf_email__" data-cfemail="490428202709057d">[email protected]</a>
  6. Format settings                          : CABAC / 3 Ref Frames
  7. Format settings, CABAC                   : Yes
  8. Format settings, Reference frames        : 3 frames
  9. Codec ID                                 : V_MPEG4/ISO/AVC
  10. Duration                                 : 1 h 22 min
  11. Bit rate mode                            : Variable
  12. Bit rate                                 : 7 500 kb/s
  13. Maximum bit rate                         : 11.2 Mb/s
  14. Width                                    : 1 920 pixels
  15. Height                                   : 1 080 pixels
  16. Display aspect ratio                     : 16:9
  17. Frame rate mode                          : Constant
  18. Frame rate                               : 29.970 (30000/1001) FPS
  19. Color space                              : YUV
  20. Chroma subsampling                       : 4:2:0
  21. Bit depth                                : 8 bits
  22. Scan type                                : Progressive
  23. Bits/(Pixel*Frame)                       : 0.121
  24. Stream size                              : 4.24 GiB (98%)
  25. Writing library                          : x264 core 118
  26. Encoding settings                        : cabac=1 / ref=3 / deblock=1:0:0 / analyse=0x1:0x111 / me=umh / subme=10 / psy=1 / psy_rd=1.00:0.00 / mixed_ref=1 / me_range=24 / chroma_me=1 / trellis=2 / 8x8dct=0 / cqm=0 / deadzone=21,11 / fast_pskip=1 / chroma_qp_offset=-2 / threads=8 / sliced_threads=0 / nr=0 / decimate=1 / interlaced=0 / bluray_compat=0 / constrained_intra=0 / bframes=2 / b_pyramid=0 / b_adapt=2 / b_bias=0 / direct=3 / weightb=1 / open_gop=0 / weightp=2 / keyint=60 / keyint_min=31 / scenecut=0 / intra_refresh=0 / rc_lookahead=0 / rc=2pass / mbtree=1 / bitrate=7500 / ratetol=1.0 / qcomp=0.50 / qpmin=6 / qpmax=51 / qpstep=4 / cplxblur=20.0 / qblur=0.5 / vbv_maxrate=11250 / vbv_bufsize=15000 / nal_hrd=vbr / ip_ratio=1.40 / aq=1:1.00
  27. Default                                  : Yes
  28. Forced                                   : No

  29. Audio
  30. ID                                       : 2
  31. Format                                   : E-AC-3
  32. Format/Info                              : Enhanced AC-3
  33. Commercial name                          : Dolby Digital Plus
  34. Codec ID                                 : A_EAC3
  35. Duration                                 : 1 h 22 min
  36. Bit rate mode                            : Constant
  37. Bit rate                                 : 128 kb/s
  38. Channel(s)                               : 2 channels
  39. Channel layout                           : L R
  40. Sampling rate                            : 48.0 kHz
  41. Frame rate                               : 31.250 FPS (1536 SPF)
  42. Compression mode                         : Lossy
  43. Stream size                              : 76.0 MiB (2%)
  44. Language                                 : English
  45. Service kind                             : Complete Main
  46. Default                                  : Yes
  47. Forced                                   : No

  48. Text #1
  49. ID                                       : 3
  50. Format                                   : UTF-8
  51. Codec ID                                 : S_TEXT/UTF8
  52. Codec ID/Info                            : UTF-8 Plain Text
  53. Duration                                 : 1 h 20 min
  54. Bit rate                                 : 82 b/s
  55. Count of elements                        : 1283
  56. Stream size                              : 48.7 KiB (0%)
  57. Title                                    : SDH
  58. Language                                 : English
  59. Default                                  : No
  60. Forced                                   : No

  61. Text #2
  62. ID                                       : 4
  63. Format                                   : UTF-8
  64. Codec ID                                 : S_TEXT/UTF8
  65. Codec ID/Info                            : UTF-8 Plain Text
  66. Duration                                 : 1 h 19 min
  67. Bit rate                                 : 76 b/s
  68. Count of elements                        : 1177
  69. Stream size                              : 44.6 KiB (0%)
  70. Language                                 : German
  71. Default                                  : No
  72. Forced                                   : No

  73. Text #3
  74. ID                                       : 5
  75. Format                                   : UTF-8
  76. Codec ID                                 : S_TEXT/UTF8
  77. Codec ID/Info                            : UTF-8 Plain Text
  78. Duration                                 : 1 h 19 min
  79. Bit rate                                 : 73 b/s
  80. Count of elements                        : 1259
  81. Stream size                              : 42.6 KiB (0%)
  82. Language                                 : Spanish
  83. Default                                  : No
  84. Forced                                   : No

  85. Text #4
  86. ID                                       : 6
  87. Format                                   : UTF-8
  88. Codec ID                                 : S_TEXT/UTF8
  89. Codec ID/Info                            : UTF-8 Plain Text
  90. Duration                                 : 1 h 22 min
  91. Bit rate                                 : 73 b/s
  92. Count of elements                        : 1211
  93. Stream size                              : 44.5 KiB (0%)
  94. Language                                 : French
  95. Default                                  : No
  96. Forced                                   : No

  97. Text #5
  98. ID                                       : 7
  99. Format                                   : UTF-8
  100. Codec ID                                 : S_TEXT/UTF8
  101. Codec ID/Info                            : UTF-8 Plain Text
  102. Duration                                 : 1 h 19 min
  103. Bit rate                                 : 67 b/s
  104. Count of elements                        : 1070
  105. Stream size                              : 39.1 KiB (0%)
  106. Language                                 : Dutch
  107. Default                                  : No
  108. Forced                                   : No
复制代码

辣妞征集/搜寻辣妹 Hot.Girls.Wanted.2015.1080p.NF.WEBRip.DDP2.0.x264-AJP69 4.32GB-2.png 辣妞征集/搜寻辣妹 Hot.Girls.Wanted.2015.1080p.NF.WEBRip.DDP2.0.x264-AJP69 4.32GB-3.png 辣妞征集/搜寻辣妹 Hot.Girls.Wanted.2015.1080p.NF.WEBRip.DDP2.0.x264-AJP69 4.32GB-4.png







VIP会员免费任意下载本站所有资源!---点击开通
回复

使用道具 举报

懒得打字嘛,点击右侧快捷回复 【右侧内容,后台自定义】
您需要登录后才可以回帖 登录 | 立即注册

本版积分规则

QQ|Archiver|手机版|小黑屋| 中国高清网 |网站地图

GMT+8, 2019-9-21 15:11 , Processed in 0.591744 second(s), 39 queries .

Powered by HDchina X3.4

Copyright 2017-2019©HDchina.All right reserved

返回顶部 联系我们